Скачать через торрент [SERIAL4PSP] Эврика Eureka Фильм бесплатно в хорошем качестве torrent

Скачивайте на UnionPeer.org фильмы через торрент без регистрации. Новинки кино в хорошем качестве через торрент. На UnionPeer.org можно скачать через торрент фильмы 2014 и 2015 годов. Самые новые фильмы.

Скачать торрент [SERIAL4PSP] Эврика Eureka бесплатно через .torrent фильм мультфильм сериал

Если у вас наблюдаются проблемы со скриншотами, переходом по ссылками, скачиванием торрентов - проблемы в блокировщике рекламы AdBlock. #хорошегоДня!


Статистика раздачи
Размер:  4.04 GB   |    Зарегистрирован:  5 лет 4 месяца   |    .torrent скачан:  66 раз   |   
Раздают:  1  
   
Загрузка...
 
Автор Сообщение

Galfimbul

avatar Galfimbul




Эврика
«Small town. Big secret.»
Оригинальное название: Eureka
Год выпуска: 2008-2009
Страна: США
Студия: ''NBC Universal Television / Universal Cable Productions''
Номер сезона: 3 сезон (18 эпизодов)
Статус сериала: съёмки продолжаются (идет показ 4 сезона)
Жанр: фантастика, драма, комедия, детектив
Продолжительность: ~ 44 мин эпизод
Перевод: профессиональный, многоголосый, закадровый (релиз группы: )
Режиссер: Майк Рол, Крис Фишер, Джо Мортон
Автор идеи: Эндрю Косби, Эми Берг, Карл Шефер
Продюссер: Джейм Паглия, Этан Лоуренс, Грант Розенберг
В ролях: Колин Фергюсон, Салли Ричардсон, Эрика Серра, Джо Мортон, Нил Грэйстон, Джордан Хинсон
Описание:
Поскольку Вторая Мировая Война закончилась уничтожением Хиросимы и Нагасаки, наука и изобретения стали приоритетными во всем мире. Америка чуть не проиграла гонку с атомными бомбами; это не должно повториться.

С помощью Альберта Эйнштейна и других доверенных советников, Президент Гарри С. Труман уполномочил начать заселение удаленной области Тихоокеанского Северо-запада, чтобы сохранить интеллектуальные ценности Америки. Там величайшие умы, вундеркинды, были бы в состоянии жить и работать в благосклонной окружающей среде. Лучшие архитекторы и планировщики были уполномочены построить такое место для этих превосходных гениев, где бы они жили и имели лучшее образование для своих детей, лучшую систему здравоохранения, все для комфортного проживания жизни. Это общество жило бы так же, как все, но с небольшим различием: этот город не обозначен ни на одной карте. О нем никто не знает, кроме Пентагона.

Так появился город Эврика. Но в этом маленьком городе все совсем не так, как в других маленьких городах. Большинство «квантовых прыжков» в науке и технике в течение 50 лет было произведено именно элитными исследователями из Эврики. К сожалению, научные исследования всегда непредсказуемы, и годы экспериментов привели к некоторым побочным явлениям.

От невостребованной любви до профессиональной ревности, от склонности до депрессии, проблемы горожан Эвреки увеличиваются с каждым днем. Но с уникальными талантами населения и безграничными ресурсами, эти провинциальные проблемы могут стать большими проблемами. Именно там, где человеческая непрочность и супернаука сталкиваются, Эврика, начинается…

Season 3, Episode 1: Bad to the Drone / Сбежавший робот
Season 3, Episode 2: What About Bob? / Что случилось с Бобом?
Season 3, Episode 3: Best in Faux / Искусственные друзья
Season 3, Episode 4: I Do Over / Я снова согласна
Season 3, Episode 5: Show Me the Mummy / Покажите мне мумию
Season 3, Episode 6: Phased and Confused / Не в той частоте
Season 3, Episode 7: Here Come the Suns / А вот и солнышки
Season 3, Episode 8: From Fear to Eternity / Вечный покой
Season 3, Episode 9: Welcome Back Carter / С возвращением, Картер
Season 3, Episode 10: Your Face or Mine / Твоё лицо или моё
Season 3, Episode 11: Insane in the P-Brane / Безумие в Пи-бране
Season 3, Episode 12: It's Not Easy Being Green / Нелегко быть зелёным
Season 3, Episode 13: If You Build It… / Если вы его построите…
Season 3, Episode 14: Ship Happens / Подарочек из космоса
Season 3, Episode 15: Shower the People / Вода жизни
Season 3, Episode 16: You Don't Know Jack / Вы не знаете Джека
Season 3, Episode 17: Have an Ice Day / Холодного дня!
Season 3, Episode 18: What Goes Around, Comes Around / Что посеешь, то и пожнёшь
Тех. информация:
Качество: WEB-DLRip
Формат: MP4 PSP AVC
Кодек видео: H.264
Кодек аудио: AAC
Видео: 480x272 (16:9), 23.976 fps, AVC, H.264, ~ 608 kbps avg, 0.194 bit/pixel
Аудио: Russian 48 kHz, AAC-LC, 2/0 (L,R) ch, ABR, ~128 kbps

General
Complete name : E:\Ripped_PSP\Эврика (Eureka, 3 season)\Eureka.s03e01.webdl.rus.mp4
Format : MPEG-4
Format profile : Base Media
Codec ID : isom
File size : 229 MiB
Duration : 43mn 42s
Overall bit rate : 734 Kbps
Encoded date : UTC 2010-11-14 01:54:13
Tagged date : UTC 2010-11-14 01:54:13

Video
ID : 1
Format : AVC
Format/Info : Advanced Video Codec
Format profile : <a href="mailto:Main@L3.0" class="postLink">Main@L3.0</a>
Format settings, CABAC : Yes
Format settings, ReFrames : 2 frames
Codec ID : avc1
Codec ID/Info : Advanced Video Coding
Duration : 43mn 42s
Bit rate mode : Variable
Bit rate : 608 Kbps
Maximum bit rate : 2 166 Kbps
Width : 480 pixels
Height : 272 pixels
Display aspect ratio : 16:9
Frame rate mode : Constant
Frame rate : 23.976 fps
Color space : YUV
Chroma subsampling : 4:2:0
Bit depth : 8 bits
Scan type : Progressive
Bits/(Pixel*Frame) : 0.194
Stream size : 188 MiB (82%)
Writing library : x264 core 86 r1442M 781d300
Encoding settings : cabac=1 / ref=2 / deblock=1:0:0 / analyse=0x1:0x131 / me=hex / subme=7 / psy=1 / psy_rd=1.00:0.00 / mixed_ref=1 / me_range=16 / chroma_me=1 / trellis=1 / 8x8dct=0 / cqm=0 / deadzone=21,11 / fast_pskip=1 / chroma_qp_offset=-2 / threads=2 / sliced_threads=0 / nr=0 / decimate=1 / interlaced=0 / constrained_intra=0 / bframes=3 / b_pyramid=0 / b_adapt=2 / b_bias=0 / direct=3 / wpredb=1 / wpredp=2 / keyint=230 / keyint_min=23 / scenecut=40 / intra_refresh=0 / rc_lookahead=40 / rc=cbr / mbtree=1 / bitrate=608 / ratetol=0.2 / qcomp=0.60 / qpmin=10 / qpmax=51 / qpstep=4 / vbv_maxrate=2000 / vbv_bufsize=2000 / ip_ratio=1.41 / aq=1:1.00 / pulldown=0 / nal_hrd=none
Language : English
Tagged date : UTC 2010-11-14 01:56:56

Audio
ID : 2
Format : AAC
Format/Info : Advanced Audio Codec
Format version : Version 4
Format profile : LC
Format settings, SBR : No
Codec ID : 40
Duration : 43mn 42s
Bit rate mode : Variable
Bit rate : 129 Kbps
Maximum bit rate : 154 Kbps
Channel(s) : 2 channels
Channel positions : Front: L R
Sampling rate : 48.0 KHz
Stream size : 40.3 MiB (18%)
Encoded date : UTC 2010-11-14 01:56:45
Tagged date : UTC 2010-11-14 01:56:56


Трекер:  [ 10-Июл-2012 19:16 ]

  

Скачать .torrent

Размер .torrent файла 21 KB


Размер: 4.04 GB
Хэш (hash) релиза: 17ef3b79f36cd3baef8d5aef449c7aae37b6525a
Подписка на обновления:

Еще никто не оставлял запись к записи скачать торрент [SERIAL4PSP] Эврика Eureka . Будь первым!

!Обратная связь