Скачать через торрент [SERIAL] Касл Castle Фильм бесплатно в хорошем качестве torrent

Скачивайте на UnionPeer.org фильмы через торрент без регистрации. Новинки кино в хорошем качестве через торрент. На UnionPeer.org можно скачать через торрент фильмы 2014 и 2015 годов. Самые новые фильмы.

Скачать торрент [SERIAL] Касл Castle бесплатно через .torrent фильм мультфильм сериал

Если у вас наблюдаются проблемы со скриншотами, переходом по ссылками, скачиванием торрентов - проблемы в блокировщике рекламы AdBlock. #хорошегоДня!


Статистика раздачи
Размер:  5.35 GB   |    Зарегистрирован:  5 лет 1 месяц   |    .torrent скачан:  84 раза   |   
Раздают:  1  
   
Загрузка...
 
Автор Сообщение

Galfimbul

avatar Galfimbul


Касл / Castle

Оригинальное название: Castle
Год выпуска: 2009
Страна: США
Жанр: драма, криминал, детектив, комедия
Продолжительность: ~41 мин.
Перевод: Профессиональный (многоголосый, закадровый) [NovaFilm]
В ролях:
Натан Филлион (Ричард Касл), Молли С. Куинн (Алексис Касл), Симус Девер (Кевин Райан), Джон Уэртас (Хавьер Эспозито), Тэмела Джонс (Лэни Пэриш), Стана Катич (Кейт Беккет).

Описание: Знакомьтесь, Ричард Кастл - успешный писатель детективного жанра, который в последней книге убил своего главного героя. Но кажется, что одному из почитателей его таланта книги понравились слегка чересчур - в городе появляется подражатель, совершающий преступления, с убийственной точностью копируя способы, которыми Кастл убивал в своих произведениях. И вот наш изнывающий от скуки писатель был вызван в отдел убийств Нью-йоркской полиции, чтобы помочь найти убийцу.

Качество: HDTVRip
Формат: MP4
Видео кодек: H.264
Аудио кодек: AAC
Видео: AVC, 480 pixels х 272 pixels, 23.976 fps, 608 Kbps, 0.194 bit/pixel
Аудио: 128 Kbps, 48.0 KHz, 2 ch
1. Долговая Могила / Deep in Death
2. За двумя зайцами... / The Double Down
3. Модель успеха / Inventing the Girl
4. Сам Дурак... / Fool Me Once...
5. Когда Тайное Становится Явным / When the Bough Breaks
6. Уикенд Вампиров / Vampire Weekend
7. А напоследок я скажу... / Famous Last Words
8. Убить Гонца / Kill the Messenger
9. Любовь До Гроба / Love Me Dead
10. Сор из Избы / One Man's Treasure
11. Пятая Пуля / The Fifth Bullet
12. Роза На Долгую Память / A Rose for Everafter
13. Удар в Спину / Sucker Punch
14. Третий / The Third Man
15. Последний Хоумран / Suicide Squeeze
16. Госпожа Всегда Шлёпает Дважды / The Mistress Always Spanks Twice
17. Тик Тик Тик / Tick Tick Tick
18. Бум! / Boom!
19. Проклятье Мумии / Wrapped Up in Death
20. Запоздалый удар / The Late Shaft
21. Воровское логово / Den of Thieves
22. Съесть и умереть / Food to Die For
23. Крайность / Overkill
24. Смертельная игра / A Deadly Game
General
Complete name : H:\сериалы для psp\Castle_2_season\castle.s02e01.hdtv.rus. СПАМ
Format : MPEG-4
Format profile : Base Media
Codec ID : isom
File size : 217 MiB
Duration : 41mn 2s
Overall bit rate : 740 Kbps
Encoded date : UTC 2010-10-18 22:15:12
Tagged date : UTC 2010-10-18 22:15:12

Video
ID : 1
Format : AVC
Format/Info : Advanced Video Codec
Format profile : <a href="mailto:Main@L3.0" class="postLink">Main@L3.0</a>
Format settings, CABAC : Yes
Format settings, ReFrames : 3 frames
Codec ID : avc1
Codec ID/Info : Advanced Video Coding
Duration : 41mn 2s
Bit rate mode : Variable
Bit rate : 608 Kbps
Maximum bit rate : 3 458 Kbps
Width : 480 pixels
Height : 272 pixels
Display aspect ratio : 16:9
Frame rate mode : Constant
Frame rate : 23.976 fps
Color space : YUV
Chroma subsampling : 4:2:0
Bit depth : 8 bits
Scan type : Progressive
Bits/(Pixel*Frame) : 0.194
Stream size : 178 MiB (82%)
Title : Imported with GPAC 0.4.6-DEV (build 1)
Writing library : x264 core 92 r1510 33d382a
Encoding settings : cabac=1 / ref=3 / deblock=1:-1:0 / analyse=0x1:0x131 / me=umh / subme=7 / psy=1 / psy_rd=1.00:0.20 / mixed_ref=1 / me_range=16 / chroma_me=1 / trellis=2 / 8x8dct=0 / cqm=0 / deadzone=21,11 / fast_pskip=0 / chroma_qp_offset=-3 / threads=3 / sliced_threads=0 / nr=0 / decimate=0 / interlaced=0 / constrained_intra=0 / bframes=3 / b_pyramid=0 / b_adapt=2 / b_bias=0 / direct=3 / wpredb=1 / wpredp=2 / keyint=250 / keyint_min=25 / scenecut=40 / intra_refresh=0 / rc_lookahead=60 / rc=2pass / mbtree=1 / bitrate=608 / ratetol=1.0 / qcomp=0.60 / qpmin=10 / qpmax=51 / qpstep=4 / cplxblur=20.0 / qblur=0.5 / ip_ratio=1.40 / aq=1:1.00
Encoded date : UTC 2010-10-18 22:15:12
Tagged date : UTC 2010-10-18 22:15:25

Audio
ID : 2
Format : AAC
Format/Info : Advanced Audio Codec
Format version : Version 4
Format profile : LC
Format settings, SBR : No
Codec ID : 40
Duration : 41mn 2s
Bit rate mode : Variable
Bit rate : 128 Kbps
Maximum bit rate : 150 Kbps
Channel(s) : 2 channels
Channel positions : Front: L R
Sampling rate : 48.0 KHz
Stream size : 37.6 MiB (17%)
Encoded date : UTC 2010-10-18 22:15:23
Tagged date : UTC 2010-10-18 22:15:25


Трекер:  [ 10-Июл-2012 19:25 ]

  

Скачать .torrent

Размер .torrent файла 30 KB


Размер: 5.35 GB
Хэш (hash) релиза: adce529fdb925ca232832ded242116f68f04d141
Подписка на обновления:

Еще никто не оставлял запись к записи скачать торрент [SERIAL] Касл Castle . Будь первым!

!Обратная связь