Скачать через торрент [SERIAL] Связь Прикосновение Фильм бесплатно в хорошем качестве torrent

Скачивайте на UnionPeer.org фильмы через торрент без регистрации. Новинки кино в хорошем качестве через торрент. На UnionPeer.org можно скачать через торрент фильмы 2014 и 2015 годов. Самые новые фильмы.

Скачать торрент [SERIAL] Связь Прикосновение бесплатно через .torrent фильм мультфильм сериал

Если у вас наблюдаются проблемы со скриншотами, переходом по ссылками, скачиванием торрентов - проблемы в блокировщике рекламы AdBlock. #хорошегоДня!


Статистика раздачи
Размер:  2.76 GB   |    Зарегистрирован:  5 лет 1 месяц   |    .torrent скачан:  34 раза   |   
Раздают:  1  
   
Загрузка...
 
Автор Сообщение

Galfimbul

avatar Galfimbul



Связь / Прикосновение
«Все в мире взаимосвязано ...»
Оригинальное название: Touch
Год выпуска: 2012
Страна: США
Студия: ''20th Century Fox Television / Chernin Entertainment''
Кол - во сезонов: 1 сезона
Статус сериала: идет показ
Жанр: драма
Продолжительность: ~ 60 мин эпизод
Перевод : профессиональный, многоголосый, закадровый (релиз группа )
Режиссер: Френсис Лоуренс
Сценарий: Тим Кринг
Продюссер: Нил Ахерн мл., Кэрол Барби, Дэннис Хаммер
В ролях: Кифер Сазерленд, Карен Шенас-Дэвид, Девид де Латур, Масси Фурлан, Дэнни Гловер и др.
Описание:
В центре событий отец, который обнаруживает, что его сын, болеющий аутизмом, действительно может предсказывать события, которые еще не произошли.

Season 1, Episode 1: Pilot
Season 1, Episode 2: 1+1=3
Season 1, Episode 3: Safety in Numbers
Season 1, Episode 4: Kite Strings
Season 1, Episode 5: Entanglement
Season 1, Episode 6: Lost & Found
Season 1, Episode 7: Noosphere Rising
Season 1, Episode 8: Zone of Exclusion
Season 1, Episode 9: Music of the Spheres
Season 1, Episode 10: Tessellations
Season 1, Episode 11: Gyre, Part 1
Season 1, Episode 12: Gyre, Part 2
Тех. информация:
Качество: WEB-DLRip[/b]
Формат: MP4 PSP AVC
Кодек видео: H.264
Кодек аудио: AAC
Видео: 480x272 (16:9), 23.976 fps, AVC, H.264, ~ 608 kbps avg, 0.194 bit/pixel
Аудио: Russian 48 kHz, AAC-LC, 2/0 (L,R) ch, ABR, ~128 kbps

General
Complete name : E:\Ripped_PSP\Связь (Touch, 2012)\Touch.s01e01.webdl.rus.mp4
Format : MPEG-4
Format profile : Base Media
Codec ID : isom
File size : 266 MiB
Duration : 50mn 13s
Overall bit rate : 740 Kbps
Encoded date : UTC 2012-01-28 11:24:02
Tagged date : UTC 2012-01-28 11:24:02

Video
ID : 1
Format : AVC
Format/Info : Advanced Video Codec
Format profile : <a href="mailto:Main@L3.0" class="postLink">Main@L3.0</a>
Format settings, CABAC : Yes
Format settings, ReFrames : 3 frames
Codec ID : avc1
Codec ID/Info : Advanced Video Coding
Duration : 50mn 13s
Bit rate mode : Variable
Bit rate : 608 Kbps
Maximum bit rate : 3 730 Kbps
Width : 480 pixels
Height : 272 pixels
Display aspect ratio : 16:9
Frame rate mode : Constant
Frame rate : 23.976 fps
Color space : YUV
Chroma subsampling : 4:2:0
Bit depth : 8 bits
Scan type : Progressive
Bits/(Pixel*Frame) : 0.194
Stream size : 218 MiB (82%)
Writing library : x264 core 119 r2106 07efeb4
Encoding settings : cabac=1 / ref=3 / deblock=1:-2:0 / analyse=0x1:0x131 / me=umh / subme=10 / psy=1 / psy_rd=1.00:0.20 / mixed_ref=1 / me_range=16 / chroma_me=1 / trellis=2 / 8x8dct=0 / cqm=0 / deadzone=21,11 / fast_pskip=0 / chroma_qp_offset=-3 / threads=6 / sliced_threads=0 / nr=0 / decimate=0 / interlaced=0 / bluray_compat=0 / constrained_intra=0 / bframes=3 / b_pyramid=0 / b_adapt=2 / b_bias=0 / direct=3 / weightb=1 / open_gop=0 / weightp=2 / keyint=250 / keyint_min=23 / scenecut=40 / intra_refresh=0 / rc_lookahead=60 / rc=2pass / mbtree=1 / bitrate=608 / ratetol=1.0 / qcomp=0.60 / qpmin=0 / qpmax=69 / qpstep=4 / cplxblur=20.0 / qblur=0.5 / ip_ratio=1.40 / aq=1:1.00
Encoded date : UTC 2012-01-28 11:24:02
Tagged date : UTC 2012-01-28 11:24:07

Audio
ID : 2
Format : AAC
Format/Info : Advanced Audio Codec
Format profile : LC
Codec ID : 40
Duration : 50mn 13s
Bit rate mode : Variable
Bit rate : 128 Kbps
Maximum bit rate : 159 Kbps
Channel(s) : 2 channels
Channel positions : Front: L R
Sampling rate : 48.0 KHz
Compression mode : Lossy
Stream size : 46.0 MiB (17%)
Encoded date : UTC 2012-01-28 11:24:07
Tagged date : UTC 2012-01-28 11:24:07


Трекер:  [ 10-Июл-2012 22:26 ]

  

Скачать .torrent

Размер .torrent файла 15 KB


Размер: 2.76 GB
Хэш (hash) релиза: cddb63103f348bd801767f7e4ff15f478e69036a
Подписка на обновления:

Еще никто не оставлял запись к записи скачать торрент [SERIAL] Связь Прикосновение . Будь первым!

!Обратная связь