Скачать через торрент Дальнобойщики - 3 Фильм бесплатно в хорошем качестве torrent

Скачивайте на UnionPeer.org фильмы через торрент без регистрации. Новинки кино в хорошем качестве через торрент. На UnionPeer.org можно скачать через торрент фильмы 2014 и 2015 годов. Самые новые фильмы.

Скачать торрент Дальнобойщики - 3 бесплатно через .torrent фильм мультфильм сериал

Если у вас наблюдаются проблемы со скриншотами, переходом по ссылками, скачиванием торрентов - проблемы в блокировщике рекламы AdBlock. #хорошегоДня!


Статистика раздачи
Размер:  2.43 GB   |    Зарегистрирован:  5 лет 4 месяца   |    .torrent скачан:  44 раза   |   
Раздают:  1  
   
Загрузка...
 
Автор Сообщение

Galfimbul

avatar Galfimbul


Дальнобойщики - 3
Оригинальное название: Дальнобойщики - 3
Год выпуска: 2012 г.
Страна: Россия
Жанр: Приключения, мелодрама, комедия
Продолжительность: Серии по 45 минут

Режиссер: Марина Вединеева
В ролях: Владимир Гостюхин, Сергей Друзьяк, Павел Сборщиков, Андрей Лавров, Наталья Егорова, Олег Мосалев, Сергей Рубеко, Юлиана Ромашина (Оррен), Анатолий Шаляпин, Дарья Повереннова, Александр Пятков, Михаил Богдасаров, Петр Зайченко, Сергей Глушко, Алексей Шевченков, Анатолий Калмыков, Екатерина Семёнова, Вадим Яцук, Александра Березовец-Скачкова, Виктор Яцук, Ксения Лаврова-Глинка, Елена Старостина (II), Алексей Огурцов, Александр Кудринский, Виталий Кудрявцев, Роман Чора, Роман Индык, Галина Фёдорова (II), Алексей Дайнеко, Андрей Леонов, Анна Цуканова, Сергей Мухин, Игорь Верник, Михаил Самохвалов, Сергей Колесников, Алексей Агрызков, Максим Коновалов, Ирина Даниленко (III), Евгений Аксенов (II)
Описание: Прошло 10 лет. На автобазе, где, по-прежнему, работает Федор Иванович, больших изменений не произошло, он как и десять лет назад, крутит баранку, колесит на своей фуре по российским дорогам, но только один, без напарника. Нет второго такого, как Сашок, так и не нашел ему Федор замену.

История начинается в тот день, когда родные и близкие, да и вся автобаза, готовятся отметить юбилей Федора Ивановича. Только старый дальнобойщик не любит пышные торжества, поэтому, пока на базе накрывают столы, Федор Иванович на своем рабочем месте – за рулем фуры. Обычный рейс, груз сопровождает симпатичная молодая женщина Ирина. Но на дороге водителя часто подстерегают опасности…
Качество видео: SATRip
Формат: MP4
Видео кодек: H.264
Аудио кодек: AAC
Видео: MPEG4 Video (H264) 480x272 (16:9) 25fps 512 Kbps
Аудио: AAC 48000Hz stereo 128kbps
Format : MPEG-4
Format profile : Base Media
Codec ID : isom
File size : 209 MiB
Duration : 45mn 13s
Overall bit rate : 645 Kbps
Writing application : XviD4PSP 6.0 / 53.31.100

Video
ID : 1
Format : AVC
Format/Info : Advanced Video Codec
Format profile : <a href="mailto:Main@L3.0" class="postLink">Main@L3.0</a>
Format settings, CABAC : Yes
Format settings, ReFrames : 2 frames
Codec ID : avc1
Codec ID/Info : Advanced Video Coding
Duration : 45mn 13s
Bit rate : 512 Kbps
Width : 480 pixels
Height : 272 pixels
Display aspect ratio : 16:9
Original display aspect ratio : 16:9
Frame rate mode : Constant
Frame rate : 25.000 fps
Color space : YUV
Chroma subsampling : 4:2:0
Bit depth : 8 bits
Scan type : Progressive
Bits/(Pixel*Frame) : 0.157
Stream size : 165 MiB (79%)
Writing library : x264 core 120 r2146M bcd41db
Encoding settings : cabac=1 / ref=1 / deblock=1:-1:-1 / analyse=0x1:0x131 / me=tesa / subme=10 / psy=1 / psy_rd=1.00:0.15 / mixed_ref=0 / me_range=16 / chroma_me=1 / trellis=2 / 8x8dct=0 / cqm=0 / deadzone=21,11 / fast_pskip=1 / chroma_qp_offset=-3 / threads=8 / sliced_threads=0 / nr=0 / decimate=1 / interlaced=0 / bluray_compat=0 / constrained_intra=0 / bframes=3 / b_pyramid=0 / b_adapt=2 / b_bias=0 / direct=3 / weightb=1 / open_gop=0 / weightp=2 / keyint=250 / keyint_min=25 / scenecut=40 / intra_refresh=0 / rc_lookahead=40 / rc=cbr / mbtree=1 / bitrate=512 / ratetol=1.0 / qcomp=0.60 / qpmin=10 / qpmax=51 / qpstep=4 / vbv_maxrate=512 / vbv_bufsize=2000 / nal_hrd=none / ip_ratio=1.40 / aq=1:1.00

Audio
ID : 2
Format : AAC
Format/Info : Advanced Audio Codec
Format profile : LC
Codec ID : 40
Duration : 45mn 13s
Bit rate mode : Constant
Bit rate : 128 Kbps
Channel(s) : 2 channels
Channel positions : Front: L R
Sampling rate : 48.0 KHz
Compression mode : Lossy
Stream size : 41.4 MiB (20%)



Трекер:  [ 10-Июл-2012 22:32 ]

  

Скачать .torrent

Размер .torrent файла 13 KB


Размер: 2.43 GB
Хэш (hash) релиза: 463dcd71097d1bc6333cc84fbea4002d41a82c44
Подписка на обновления:

Еще никто не оставлял запись к записи скачать торрент Дальнобойщики - 3 . Будь первым!

!Обратная связь