Скачать через торрент [SERIAL4PSP] Анатомия Грей Фильм бесплатно в хорошем качестве torrent

Скачивайте на UnionPeer.org фильмы через торрент без регистрации. Новинки кино в хорошем качестве через торрент. На UnionPeer.org можно скачать через торрент фильмы 2014 и 2015 годов. Самые новые фильмы.

Скачать торрент [SERIAL4PSP] Анатомия Грей бесплатно через .torrent фильм мультфильм сериал

Если у вас наблюдаются проблемы со скриншотами, переходом по ссылками, скачиванием торрентов - проблемы в блокировщике рекламы AdBlock. #хорошегоДня!


Статистика раздачи
Размер:  2 GB   |    Зарегистрирован:  5 лет 1 месяц   |    .torrent скачан:  48 раз   |   
Раздают:  1  
   
Загрузка...
 
Автор Сообщение

Galfimbul

avatar Galfimbul




Анатомия страсти (Анатомия Грей)
«Operations. Temptations. Frustrations.»
Оригинальное название: Grey's Anatomy
Год выпуска: 2005
Страна: США
Студия: ''ABC Studios / The Mark Gordon Company / Touchstone Television''
Номер сезона: 1-й сезон (9 эпизодов)
Статус сериала: съёмки продолжаются
Жанр: драма, комедия, медицина
Продолжительность: ~ 44 мин эпизод
Перевод: профессиональный, многоголосый (закадровый) [ ТВ канал: ]
Режиссер: Шонда Раймз
Автор идеи: Шонда Раймс, Уильям Харпер, Питер Ноуолк
Продюссер: Бетси Бирс, Лиза Тейлор, Дебора Кан
В ролях: Эллен Помпео, Кэтрин Хайгл, Т.Р. Найт, Сандра О, Джастин Чэмберс, Патрик Дэмпси, Брук Смит, Сара Рамирез, Эрик Дэйнс, Джеймс Пикенс, Чэндра Уилсон
Описание:
«Анатомия страсти» (англ. Grey's Anatomy) — американский телесериал о жизни интернов и врачей больницы «Сиэтл Грейс» («Seattle Grace Hospital», «SGH»). Главная героиня — Мередит Грей — дочь знаменитого хирурга Эллис Грей. В первый день программы для интернов она знакомится с Кристиной Янг — собранной, хладнокровной девушкой, мечтающей стать кардиохирургом, Иззи Стивенс — милой девушкой с внешностью модели и желанием показать всем, что она не глупая блондинка, с циничным Алексом Кареевым и обаятельным Джорджем О’Мейли. Они попадают к ординатору Миранде Бейли — женщине строгой, но справедливой. Неопытные интерны сталкиваются с трудностями, учатся, влюбляются, расстаются и главное — идут к своей мечте стать врачами.

Season 1, Episode 1: A Hard Day's Night
Season 1, Episode 2: The First Cut Is the Deepest
Season 1, Episode 3: Winning a Battle, Losing the War
Season 1, Episode 4: No Man's Land
Season 1, Episode 5: Shake Your Groove Thing
Season 1, Episode 6: If Tomorrow Never Comes
Season 1, Episode 7: The Self-Destruct Button
Season 1, Episode 8: Save Me
Season 1, Episode 9: Who's Zoomin' Who?
Тех. информация:
Качество: WEB-DLRip[/b]
Формат: MP4 PSP AVC
Кодек видео: H.264
Кодек аудио: AAC
Видео: 480x272 (16:9), 23.976 fps, AVC, H.264, ~ 608 kbps avg, 0.194 bit/pixel
Аудио: Russian 48 kHz, AAC-LC, 2/0 (L,R) ch, ABR, ~128 kbps

General
Complete name : J:\Ripped_PSP\Анатомия Грей (Grey's Anatomy, 1 сезон)\Grey's.Anatomy.s01e01.webdl.rus.mp4
Format : MPEG-4
Format profile : Base Media
Codec ID : isom
File size : 229 MiB
Duration : 43mn 20s
Overall bit rate : 740 Kbps
Encoded date : UTC 2010-11-15 17:21:53
Tagged date : UTC 2010-11-15 17:21:53

Video
ID : 1
Format : AVC
Format/Info : Advanced Video Codec
Format profile : <a href="mailto:Main@L3.0" class="postLink">Main@L3.0</a>
Format settings, CABAC : Yes
Format settings, ReFrames : 2 frames
Codec ID : avc1
Codec ID/Info : Advanced Video Coding
Duration : 43mn 19s
Bit rate mode : Variable
Bit rate : 608 Kbps
Maximum bit rate : 1 554 Kbps
Width : 480 pixels
Height : 272 pixels
Display aspect ratio : 16:9
Frame rate mode : Constant
Frame rate : 23.976 fps
Color space : YUV
Chroma subsampling : 4:2:0
Bit depth : 8 bits
Scan type : Progressive
Bits/(Pixel*Frame) : 0.194
Stream size : 188 MiB (82%)
Writing library : x264 core 65 r999kMod cc51047
Encoding settings : cabac=1 / ref=2 / deblock=1:0:0 / analyse=0x1:0x131 / me=umh / subme=6 / psy_rd=1.0:0.0 / mixed_ref=1 / me_range=16 / chroma_me=1 / trellis=1 / 8x8dct=0 / cqm=0 / deadzone=21,11 / chroma_qp_offset=-2 / threads=2 / thread_queue=2 / nr=0 / decimate=1 / mbaff=0 / bframes=3 / b_pyramid=0 / b_adapt=1 / b_bias=0 / direct=3 / wpredb=1 / keyint=250 / keyint_min=25 / scenecut=40(pre) / rc=2pass / bitrate=608 / ratetol=1.0 / qcomp=0.60 / qpmin=10 / qpmax=51 / qpstep=4 / cplxblur=20.0 / qblur=0.5 / ip_ratio=1.40 / pb_ratio=1.30 / aq=1:1.00
Encoded date : UTC 2010-11-15 17:21:53
Tagged date : UTC 2010-11-15 17:21:57

Audio
ID : 2
Format : AAC
Format/Info : Advanced Audio Codec
Format version : Version 4
Format profile : LC
Format settings, SBR : No
Codec ID : 40
Duration : 43mn 20s
Bit rate mode : Variable
Bit rate : 129 Kbps
Maximum bit rate : 148 Kbps
Channel(s) : 2 channels
Channel positions : Front: L R
Sampling rate : 48.0 KHz
Stream size : 39.9 MiB (17%)
Encoded date : UTC 2010-11-15 17:21:56
Tagged date : UTC 2010-11-15 17:21:57


Трекер:  [ 10-Июл-2012 22:30 ]

  

Скачать .torrent

Размер .torrent файла 11 KB


Размер: 2 GB
Хэш (hash) релиза: 3cd75c3dbc40f59b5f2399a406ccfe414214d1f4
Подписка на обновления:

Еще никто не оставлял запись к записи скачать торрент [SERIAL4PSP] Анатомия Грей . Будь первым!

!Обратная связь