Скачать через торрент [SERIAL] Риццоли и Айлз Rizzoli & Isles Фильм бесплатно в хорошем качестве torrent

Скачивайте на UnionPeer.org фильмы через торрент без регистрации. Новинки кино в хорошем качестве через торрент. На UnionPeer.org можно скачать через торрент фильмы 2014 и 2015 годов. Самые новые фильмы.

Скачать торрент [SERIAL] Риццоли и Айлз Rizzoli & Isles бесплатно через .torrent фильм мультфильм сериал

Если у вас наблюдаются проблемы со скриншотами, переходом по ссылками, скачиванием торрентов - проблемы в блокировщике рекламы AdBlock. #хорошегоДня!


Статистика раздачи
Размер:  3.27 GB   |    Зарегистрирован:  5 лет 3 месяца   |    .torrent скачан:  35 раз   |   
Раздают:  1  
   
Загрузка...
 
Автор Сообщение

Galfimbul

avatar Galfimbul



Риццоли и Айлз
Оригинальное название: Rizzoli & Isles
Год выпуска: 2011
Страна: США
Студия: ''Ostar Productions / Warner Horizon Television''
Кол - во сезонов: 2 сезона
Статус сериала: завершен 2-й сезон
Жанр: драма, криминал, детектив
Продолжительность: ~ 45 мин эпизод
Перевод : творческий многоголосый (закадровый)
Перевод: PtyZa Озвучивание: Yul, Gutta, Caps Редактура: Koss, Baggio
Режиссер: Билл Хабер
Сценарий: Тесс Герритсен, Джанет Тамаро, Дэйв Каплан
Продюссер: Дэйв Каплан, Майкл Уайсс, Джеффри М. Хэйес
В ролях: Энджи Хэрмон, Саша Александр, Джордан Бриджес, Ли Томпсон Янг, Брюс МакГилл, Лоррейн Бракко и др.
Описание:
Главная героиня сериала — Джейн Риццоли, бостонский детектив, которая вместе с патологоанатом Морой Айлс, раскрывает преступления.

Season 2, Episode 1: We Need Another Hero
Season 2, Episode 2: Living Proof
Season 2, Episode 3: Sailor Man
Season 2, Episode 4: Brown Eyed Girl
Season 2, Episode 5: Don't Hate the Player
Season 2, Episode 6: Rebel Without a Pause
Season 2, Episode 7: Bloodlines
Season 2, Episode 8: My Own Worst Enemy
Season 2, Episode 9: Gone Daddy Gone
Season 2, Episode 10: Remember Me
Season 2, Episode 11: Can I Get a Witness?
Season 2, Episode 12: He Ain't Heavy, He's My Brother
Season 2, Episode 13: Seventeen Ain't So Sweet
Season 2, Episode 14: Don't Stop Dancing, Girl
Season 2, Episode 15: Burning Down the House
Тех. информация:
Качество: WEB-DLRip
Формат: MP4 PSP AVC
Кодек видео: H.264
Кодек аудио: AAC
Видео: 480x272 (16:9), 23.976 fps, AVC, H.264, ~ 608 kbps avg, 0.194 bit/pixel
Аудио: Russian 48 kHz, AAC-LC, 2/0 (L,R) ch, ABR, ~128 kbps

General
Complete name : E:\Ripped_PSP\Риццоли и Айлз (Rizzoli & Isles, 2011, 2 сезон)\Rizzoli.and.Isles.s02e01.web-dl.rus.mp4
Format : MPEG-4
Format profile : Base Media
Codec ID : isom
File size : 224 MiB
Duration : 42mn 15s
Overall bit rate : 740 Kbps
Encoded date : UTC 2011-07-15 07:25:55
Tagged date : UTC 2011-07-15 07:25:55

Video
ID : 1
Format : AVC
Format/Info : Advanced Video Codec
Format profile : <a href="mailto:Main@L3.0" class="postLink">Main@L3.0</a>
Format settings, CABAC : Yes
Format settings, ReFrames : 3 frames
Codec ID : avc1
Codec ID/Info : Advanced Video Coding
Duration : 42mn 15s
Bit rate mode : Variable
Bit rate : 608 Kbps
Maximum bit rate : 3 059 Kbps
Width : 480 pixels
Height : 272 pixels
Display aspect ratio : 16:9
Frame rate mode : Constant
Frame rate : 23.976 fps
Color space : YUV
Chroma subsampling : 4:2:0
Bit depth : 8 bits
Scan type : Progressive
Bits/(Pixel*Frame) : 0.194
Stream size : 184 MiB (82%)
Writing library : x264 core 115 r1936 7a9e08d
Encoding settings : cabac=1 / ref=3 / deblock=1:-1:0 / analyse=0x1:0x131 / me=umh / subme=7 / psy=1 / psy_rd=1.00:0.20 / mixed_ref=1 / me_range=16 / chroma_me=1 / trellis=2 / 8x8dct=0 / cqm=0 / deadzone=21,11 / fast_pskip=0 / chroma_qp_offset=-3 / threads=3 / sliced_threads=0 / nr=0 / decimate=0 / interlaced=0 / bluray_compat=0 / constrained_intra=0 / bframes=3 / b_pyramid=0 / b_adapt=2 / b_bias=0 / direct=3 / weightb=1 / open_gop=0 / weightp=2 / keyint=250 / keyint_min=23 / scenecut=40 / intra_refresh=0 / rc_lookahead=60 / rc=2pass / mbtree=1 / bitrate=608 / ratetol=1.0 / qcomp=0.60 / qpmin=0 / qpmax=69 / qpstep=4 / cplxblur=20.0 / qblur=0.5 / ip_ratio=1.40 / aq=1:1.00
Encoded date : UTC 2011-07-15 07:25:55
Tagged date : UTC 2011-07-15 07:26:03

Audio
ID : 2
Format : AAC
Format/Info : Advanced Audio Codec
Format profile : LC
Codec ID : 40
Duration : 42mn 15s
Bit rate mode : Variable
Bit rate : 128 Kbps
Maximum bit rate : 242 Kbps
Channel(s) : 2 channels
Channel positions : Front: L R
Sampling rate : 48.0 KHz
Compression mode : Lossy
Stream size : 38.7 MiB (17%)
Encoded date : UTC 2011-07-15 07:26:01
Tagged date : UTC 2011-07-15 07:26:03


Трекер:  [ 14-Июл-2012 13:07 ]

  

Скачать .torrent

Размер .torrent файла 18 KB


Размер: 3.27 GB
Хэш (hash) релиза: 26633b31acf06fff11e73cecb9bea84da5544f3b
Подписка на обновления:

Торренты, похожие на [SERIAL] Риццоли и Айлз Rizzoli & Isles скачать торрент

Форум Название Автор Размер S L Добавлен
Видео для Консолей ·· [SERIAL] Риццоли и Айлз / Rizzoli & Isles (Майкл М. Робин) [1 сезон][10 эпизодов из 10][Gravi-TV][2010 г., драма, криминал, детектив, WEB-DLRip] Galfimbul 23996194282.23 GB 0 0 1342263180

13:53

14-Июл-12

Еще никто не оставлял запись к записи скачать торрент [SERIAL] Риццоли и Айлз Rizzoli & Isles . Будь первым!

!Обратная связь