Скачать через торрент [SERIAL] Анатомия Грей Фильм бесплатно в хорошем качестве torrent

Скачивайте на UnionPeer.org фильмы через торрент без регистрации. Новинки кино в хорошем качестве через торрент. На UnionPeer.org можно скачать через торрент фильмы 2014 и 2015 годов. Самые новые фильмы.

Скачать торрент [SERIAL] Анатомия Грей бесплатно через .torrent фильм мультфильм сериал

Если у вас наблюдаются проблемы со скриншотами, переходом по ссылками, скачиванием торрентов - проблемы в блокировщике рекламы AdBlock. #хорошегоДня!


Статистика раздачи
Размер:  5.45 GB   |    Зарегистрирован:  5 лет 4 месяца   |    .torrent скачан:  37 раз   |   
Раздают:  1  
   
Загрузка...
 
Автор Сообщение

Galfimbul

avatar Galfimbul


Анатомия Грей (Анатомия страсти)
Оригинальное название: Grey's Anatomy
Год выпуска: 2008г.
Страна: США
Жанр: комедия, драма
Сезон: 5 сезон
Кол-во Серий: 24
Перевод: Профессиональный (многоголосый, закадровый) одноголосый перевод СПАМ на места без перевода.
Продолжительность: 24 серий по 42 мин.
Режиссёр: Шонда Раймз
В ролях:: Эллен Помпео, Кейт Уолш, Джастин Чемберс, Т.Р.Найт, Сара Рамирес, Эрик Дейн, Патрик Демпси
Описание: В центре событий молодая женщина-хирург, Мередит Грей, работающая в городской больнице Сиэтла, и её коллеги, такие же начинающие врачи, как она. Неспящие в Сиэтле хирурги, не покладая рук, оперируют и влюбляются, заводят истории болезни и служебные романы, хранят свои врачебные тайны, борются с осложнениями у пациентов и в собственной личной жизни. И зачастую отношения с противоположным полом волнуют их не меньше, чем вопрос приобретения ими профессионального опыта
Качество: HDTVRip
Формат: MP4
Видео кодек: H.264
Аудио кодек: AAC
Видео: MPEG4 Video (H264) 480x272 23.98fps [640 Kbps]
Аудио: AAC 48000Hz stereo [129 Kbps]
1-2. "Dream a Little Dream of Me"
3. "Here Comes the Flood"
4. "Brave New World"
5. "There's No 'I' In Team"
6. "Life During Wartime"
7. "Rise Up"
8. "These Ties That Bind"
9. "In the Midnight Hour"
10. "All By Myself"
11. "Wish You Were Here"
12. "Sympathy For The Devil"
13. "Stairway to Heaven"
14. "Beat Your Heart Out"
15. "Before and After"
16. "An Honest Mistake"
17. "I Will Follow You Into The Dark"
18. "Stand By Me"
19. "Elevator Love Letter"
20. "Sweet Surrender"
Format : MPEG-4
Format profile : Base Media
Codec ID : isom
File size : 470 MiB
Duration : 1h 25mn
Overall bit rate : 773 Kbps
Encoded date : UTC 2010-09-06 21:04:00
Tagged date : UTC 2010-09-06 21:04:00

Video
ID : 1
Format : AVC
Format/Info : Advanced Video Codec
Format profile : <a href="mailto:Main@L3.0" class="postLink">Main@L3.0</a>
Format settings, CABAC : Yes
Format settings, ReFrames : 3 frames
Codec ID : avc1
Codec ID/Info : Advanced Video Coding
Duration : 1h 25mn
Bit rate mode : Variable
Bit rate : 640 Kbps
Maximum bit rate : 1 993 Kbps
Width : 480 pixels
Height : 272 pixels
Display aspect ratio : 16:9
Frame rate mode : Constant
Frame rate : 23.976 fps
Color space : YUV
Chroma subsampling : 4:2:0
Bit depth : 8 bits
Scan type : Progressive
Bits/(Pixel*Frame) : 0.204
Stream size : 389 MiB (83%)
Writing library : x264 core 56 svn-667M
Encoding settings : cabac=1 / ref=2 / deblock=1:0:0 / analyse=0x1:0x131 / me=umh / subme=6 / brdo=1 / mixed_ref=1 / me_range=16 / chroma_me=1 / trellis=1 / 8x8dct=0 / cqm=0 / deadzone=21,11 / chroma_qp_offset=0 / threads=2 / nr=0 / decimate=1 / mbaff=0 / bframes=3 / b_pyramid=0 / b_adapt=1 / b_bias=0 / direct=3 / wpredb=1 / bime=1 / keyint=250 / keyint_min=25 / scenecut=40(pre) / rc=2pass / bitrate=640 / ratetol=1.0 / rceq='blurCplx^(1-qComp)' / qcomp=0.60 / qpmin=10 / qpmax=51 / qpstep=4 / cplxblur=20.0 / qblur=0.5 / ip_ratio=1.40 / pb_ratio=1.30
Encoded date : UTC 2010-09-06 21:04:00
Tagged date : UTC 2010-09-06 21:04:20

Audio
ID : 2
Format : AAC
Format/Info : Advanced Audio Codec
Format version : Version 4
Format profile : LC
Format settings, SBR : No
Codec ID : 40
Duration : 1h 25mn
Bit rate mode : Variable
Bit rate : 129 Kbps
Maximum bit rate : 149 Kbps
Channel(s) : 2 channels
Channel positions : Front: L R
Sampling rate : 48.0 KHz
Stream size : 78.6 MiB (17%)
Encoded date : UTC 2010-09-06 21:04:16
Tagged date : UTC 2010-09-06 21:04:20



Трекер:  [ 14-Июл-2012 13:07 ]

  

Скачать .torrent

Размер .torrent файла 10 KB


Размер: 5.45 GB
Хэш (hash) релиза: 7dce738277f6bece7f633bbcc89566f457b91e67
Подписка на обновления:

Торренты, похожие на [SERIAL] Анатомия Грей скачать торрент

Форум Название Автор Размер S L Добавлен
Видео для Консолей ·· [SERIAL] Анатомия Грей (Анатомия страсти) / Grey's Anatomy (Шонда Раймз) [8 сезон][24 эпизода из 24][2011 - 2012 гг., драма, комедия, медицина, WEB-DLRip] (Кубик в Кубе) Galfimbul 57420930745.35 GB 0 0 1342251540

10:39

14-Июл-12

Еще никто не оставлял запись к записи скачать торрент [SERIAL] Анатомия Грей . Будь первым!

!Обратная связь