Скачать через торрент [SERIAL] Блудливая Калифорния Californication Фильм бесплатно в хорошем качестве torrent

Скачивайте на UnionPeer.org фильмы через торрент без регистрации. Новинки кино в хорошем качестве через торрент. На UnionPeer.org можно скачать через торрент фильмы 2014 и 2015 годов. Самые новые фильмы.

Скачать торрент [SERIAL] Блудливая Калифорния Californication бесплатно через .torrent фильм мультфильм сериал

Если у вас наблюдаются проблемы со скриншотами, переходом по ссылками, скачиванием торрентов - проблемы в блокировщике рекламы AdBlock. #хорошегоДня!


Статистика раздачи
Размер:  1.35 GB   |    Зарегистрирован:  5 лет 3 месяца   |    .torrent скачан:  113 раз   |   
Раздают:  1  
   
Загрузка...
 
Автор Сообщение

Galfimbul

avatar Galfimbul




Блудливая Калифорния
«Hip-Hop's Most Wanted»
Оригинальное название: Californication
Год выпуска: 2011
Страна: США
Студия: ''Showtime / Twilight Time Films / Aggressive Mediocrity''
Номер сезона: 5-й сезон (12 эпизодов)
Статус сериала: официальное начало показа в США - 8 января 2012 г.
Жанр: драма, комедия
Продолжительность: ~ 30 мин эпизод
Перевод: * многоголосый, закадровый © pozakazu.tv
Режиссер: Том Капинос
Автор идеи: Том Капинос, Джина Фатторе, Гэбриел Рот
Продюссер: Том Киф, Илди Модрович, Эрик Вейнберг
В ролях: Дэвид Духовны, Наташа МакЭлхоун, Мадлен Зима, Мэделин Мартин, Эван Хандлер, Памела Адлон, Каллум Кит Ренни, Рэйчел Майнер, Карла Галло, Кэтлин Тёрнер и др.
Описание:
Похождения блудливого писателя Хэнка Муди продолжаются. На этот раз, спустя два года, он возвращается на солнечное побережье, чтобы сработаться вместе с экс рэпером RZA. И пусть за эти годы многое изменилось, но только не старина Хэнк...
Внимание! В сериале присутствует ненормативная лексика и сцены с обнаженной натурой!

Season 5, Episode 1: JFK to LAX
Season 5, Episode 2: The Way of the Fist
Season 5, Episode 3: Boys & Girls
Season 5, Episode 4: Waiting for the Miracle
Season 5, Episode 5: The Ride Along
Season 5, Episode 6: Love Song
Season 5, Episode 7: Here I Go Again
Season 5, Episode 8: Raw
Season 5, Episode 9: At the Movies


Тех. информация:
Качество: HDTVRip
Формат: MP4
Кодек видео: H.264
Кодек аудио: AAC
Видео: 480x272 (16:9), 29.970 fps, AVC, H.264, ~ 608 kbps avg, 0.155 bit/pixel
Аудио: Russian 48 kHz, AAC-LC, 2/0 (L,R) ch, ABR, ~128 kbps

General
Complete name : E:\Ripped_PSP\Блудливая Калифорния (Californication)\Californication - 5 season\Californication.s05e01.HDTVRip.rus.mp4
Format : MPEG-4
Format profile : Base Media
Codec ID : isom
File size : 154 MiB
Duration : 29mn 2s
Overall bit rate : 740 Kbps
Encoded date : UTC 2011-12-18 01:48:09
Tagged date : UTC 2011-12-18 01:48:09

Video
ID : 1
Format : AVC
Format/Info : Advanced Video Codec
Format profile : <a href="mailto:Main@L3.0" class="postLink">Main@L3.0</a>
Format settings, CABAC : Yes
Format settings, ReFrames : 3 frames
Codec ID : avc1
Codec ID/Info : Advanced Video Coding
Duration : 29mn 2s
Bit rate : 608 Kbps
Maximum bit rate : 2 606 Kbps
Width : 480 pixels
Height : 272 pixels
Display aspect ratio : 16:9
Frame rate mode : Constant
Frame rate : 29.970 fps
Color space : YUV
Chroma subsampling : 4:2:0
Bit depth : 8 bits
Scan type : Progressive
Bits/(Pixel*Frame) : 0.155
Stream size : 126 MiB (82%)
Writing library : x264 core 119 r2106 07efeb4
Encoding settings : cabac=1 / ref=3 / deblock=1:-2:0 / analyse=0x1:0x131 / me=umh / subme=10 / psy=1 / psy_rd=1.00:0.20 / mixed_ref=1 / me_range=16 / chroma_me=1 / trellis=2 / 8x8dct=0 / cqm=0 / deadzone=21,11 / fast_pskip=0 / chroma_qp_offset=-3 / threads=6 / sliced_threads=0 / nr=0 / decimate=0 / interlaced=0 / bluray_compat=0 / constrained_intra=0 / bframes=3 / b_pyramid=0 / b_adapt=2 / b_bias=0 / direct=3 / weightb=1 / open_gop=0 / weightp=2 / keyint=250 / keyint_min=25 / scenecut=40 / intra_refresh=0 / rc_lookahead=60 / rc=2pass / mbtree=1 / bitrate=608 / ratetol=1.0 / qcomp=0.60 / qpmin=0 / qpmax=69 / qpstep=4 / cplxblur=20.0 / qblur=0.5 / ip_ratio=1.40 / aq=1:1.00
Encoded date : UTC 2011-12-18 01:48:09
Tagged date : UTC 2011-12-18 01:48:12

Audio
ID : 2
Format : AAC
Format/Info : Advanced Audio Codec
Format profile : LC
Codec ID : 40
Duration : 29mn 2s
Bit rate mode : Variable
Bit rate : 128 Kbps
Maximum bit rate : 150 Kbps
Channel(s) : 2 channels
Channel positions : Front: L R
Sampling rate : 44.1 KHz
Compression mode : Lossy
Stream size : 26.6 MiB (17%)
Encoded date : UTC 2011-12-18 01:48:12
Tagged date : UTC 2011-12-18 01:48:12


Трекер:  [ 14-Июл-2012 13:05 ]

  

Скачать .torrent

Размер .torrent файла 14 KB


Размер: 1.35 GB
Хэш (hash) релиза: 67a3e8a91b2c94389512780221be0cb905f78bce
Подписка на обновления:

Еще никто не оставлял запись к записи скачать торрент [SERIAL] Блудливая Калифорния Californication . Будь первым!

!Обратная связь