Скачать через торрент [SERIAL] Блудливая Калифорния Californication Фильм бесплатно в хорошем качестве torrent

Скачивайте на UnionPeer.org фильмы через торрент без регистрации. Новинки кино в хорошем качестве через торрент. На UnionPeer.org можно скачать через торрент фильмы 2014 и 2015 годов. Самые новые фильмы.

Скачать торрент [SERIAL] Блудливая Калифорния Californication бесплатно через .torrent фильм мультфильм сериал

Если у вас наблюдаются проблемы со скриншотами, переходом по ссылками, скачиванием торрентов - проблемы в блокировщике рекламы AdBlock. #хорошегоДня!


Статистика раздачи
Размер:  1.75 GB   |    Зарегистрирован:  5 лет 1 месяц   |    .torrent скачан:  323 раза   |   
Раздают:  1  
   
Загрузка...
 
Автор Сообщение

Galfimbul

avatar Galfimbul




Блудливая Калифорния
«The People vs. Hank Moody»
Оригинальное название: Californication
Год выпуска: 2010
Страна: США
Студия: ''Showtime / Twilight Time Films / Aggressive Mediocrity''
Номер сезона: 4-й сезон (12 эпизодов)
Статус сериала: официальное начало показа в США - 9 января 2011 г.
Жанр: драма, комедия
Продолжительность: ~ 30 мин эпизод
Перевод: многоголосый, закадровый © студия «Новамедиа»
Режиссер: Дэвид Фон Энкен, Сет Манн, Джон Дал
Автор идеи: Том Капинос, Джина Фатторе, Гэбриел Рот
Продюссер: Том Киф, Илди Модрович, Эрик Вейнберг
В ролях: Дэвид Духовны, Наташа МакЭлхоун, Мадлен Зима, Мэделин Мартин, Эван Хандлер, Памела Адлон, Каллум Кит Ренни, Рэйчел Майнер, Карла Галло, Кэтлин Тёрнер и др.
Описание:
Талантливый и некогда известный писатель Хэнк Муди переживает творческий кризис. Отсутствие вдохновения он с лихвой компенсирует алкоголем, наркотиками и красивыми женщинами. Подкупающая прямота, чувство юмора и яркая харизма привлекают к нему сердца калифорнийских красавиц. Но его сердце занято — он любящий отец своей 13-летней дочери, и всё ещё влюблён в её маму — свою бывшую подружку…
В новом сезоне Хэнку предстоят новые сложности. Проблемы с законом будут преследовать его с первой серии.
Внимание! В сериале присутствует ненормативная лексика и сцены с обнаженной натурой!

Season 4, Episode 1: Exile On Main St. / Изгой
Season 4, Episode 2: Suicide Solution / Самоубийственное Решение
Season 4, Episode 3: Home Sweet Home / Дом, Милый Дом
Season 4, Episode 4: Monkey Business / Мартышкин труд
Season 4, Episode 5: Freeze-Frame / Стоп-кадр
Season 4, Episode 6: Lawyers, Guns and Money / Юристы, деньги и стволы
Season 4, Episode 7: The Recused / Самоотводы
Season 4, Episode 8: Lights. Camera. Asshole / Свет, Камера, Засранец
Season 4, Episode 9: Another Perfect Day / Еще Один Идеальный День
Season 4, Episode 10: The Trial / Процесс
Season 4, Episode 11: The Last Supper / Последняя Вечеря
Season 4, Episode 12: ... And Justice For All / ...И Справедливость Для Всех

Тех. информация:
Качество: WEB-DLRip
Формат: MP4
Кодек видео: H.264
Кодек аудио: AAC
Видео: 480x272 (16:9), 23.976 fps, AVC, H.264, ~ 608 kbps avg, 0.194 bit/pixel
Аудио: Russian 48 kHz, AAC-LC, 2/0 (L,R) ch, ABR, ~128 kbps

General
Complete name : E:\Ripped_PSP\Блудливая Калифорния (Californication)\Californication - 4 season\Californication.s04e01.webdl.rus.mp4
Format : MPEG-4
Format profile : Base Media
Codec ID : isom
File size : 153 MiB
Duration : 28mn 53s
Overall bit rate : 740 Kbps
Encoded date : UTC 2011-10-26 02:57:18
Tagged date : UTC 2011-10-26 02:57:18

Video
ID : 1
Format : AVC
Format/Info : Advanced Video Codec
Format profile : <a href="mailto:Main@L3.0" class="postLink">Main@L3.0</a>
Format settings, CABAC : Yes
Format settings, ReFrames : 3 frames
Codec ID : avc1
Codec ID/Info : Advanced Video Coding
Duration : 28mn 53s
Bit rate : 608 Kbps
Maximum bit rate : 2 852 Kbps
Width : 480 pixels
Height : 272 pixels
Display aspect ratio : 16:9
Frame rate mode : Constant
Frame rate : 23.976 fps
Color space : YUV
Chroma subsampling : 4:2:0
Bit depth : 8 bits
Scan type : Progressive
Bits/(Pixel*Frame) : 0.194
Stream size : 126 MiB (82%)
Writing library : x264 core 115 r1936 7a9e08d
Encoding settings : cabac=1 / ref=3 / deblock=1:-1:0 / analyse=0x1:0x131 / me=umh / subme=7 / psy=1 / psy_rd=1.00:0.20 / mixed_ref=1 / me_range=16 / chroma_me=1 / trellis=2 / 8x8dct=0 / cqm=0 / deadzone=21,11 / fast_pskip=0 / chroma_qp_offset=-3 / threads=6 / sliced_threads=0 / nr=0 / decimate=0 / interlaced=0 / bluray_compat=0 / constrained_intra=0 / bframes=3 / b_pyramid=0 / b_adapt=2 / b_bias=0 / direct=3 / weightb=1 / open_gop=0 / weightp=2 / keyint=250 / keyint_min=23 / scenecut=40 / intra_refresh=0 / rc_lookahead=60 / rc=2pass / mbtree=1 / bitrate=608 / ratetol=1.0 / qcomp=0.60 / qpmin=0 / qpmax=69 / qpstep=4 / cplxblur=20.0 / qblur=0.5 / ip_ratio=1.40 / aq=1:1.00
Encoded date : UTC 2011-10-26 02:57:18
Tagged date : UTC 2011-10-26 02:57:24

Audio
ID : 2
Format : AAC
Format/Info : Advanced Audio Codec
Format profile : LC
Codec ID : 40
Duration : 28mn 53s
Bit rate mode : Variable
Bit rate : 128 Kbps
Maximum bit rate : 142 Kbps
Channel(s) : 2 channels
Channel positions : Front: L R
Sampling rate : 48.0 KHz
Compression mode : Lossy
Stream size : 26.5 MiB (17%)
Encoded date : UTC 2011-10-26 02:57:24
Tagged date : UTC 2011-10-26 02:57:24


Трекер:  [ 14-Июл-2012 13:05 ]

  

Скачать .torrent

Размер .torrent файла 18 KB


Размер: 1.75 GB
Хэш (hash) релиза: e66f461a903f1ecc665e518d4e4e133ea8fff693
Подписка на обновления:

Еще никто не оставлял запись к записи скачать торрент [SERIAL] Блудливая Калифорния Californication . Будь первым!

!Обратная связь