Скачать через торрент [SERIAL] Штат Блу Маунтин Blue Mountain State Фильм бесплатно в хорошем качестве torrent

Скачивайте на UnionPeer.org фильмы через торрент без регистрации. Новинки кино в хорошем качестве через торрент. На UnionPeer.org можно скачать через торрент фильмы 2014 и 2015 годов. Самые новые фильмы.

Скачать торрент [SERIAL] Штат Блу Маунтин Blue Mountain State бесплатно через .torrent фильм мультфильм сериал

Если у вас наблюдаются проблемы со скриншотами, переходом по ссылками, скачиванием торрентов - проблемы в блокировщике рекламы AdBlock. #хорошегоДня!


Статистика раздачи
Размер:  1.46 GB   |    Зарегистрирован:  5 лет 1 месяц   |    .torrent скачан:  1188 раз   |   
Раздают:  1  
   
Загрузка...
 
Автор Сообщение

Galfimbul

avatar Galfimbul




Штат Блу Маунтин
«Быстрее Выше Сильнее ...»
Оригинальное название: Blue Mountain State
Год выпуска: 2011
Страна: США
Студия: ''Lions Gate Television / Blue Mountain State Productions''
Номер сезона: 3-й сезон
Статус сериала: идет показ
Жанр: комедия, спорт
Продолжительность: ~ 25 мин эпизод
Перевод: творческий (одноголосый) (Arkadiy)
Режиссер: Джон Фортенберри, Лев Л. Спиро, Джей Чандрашекхар
Автор идеи: Эрик Фалконер, Крис Романо, Дрю Хэнкок
Продюссер: Чип Холл, Джеффри Мэлман, Кристофор Браун
В ролях: Дэрин Брукс, Алан Ричсон, Гэбриэлль Дэннис, Крис Романо, Эд Маринаро, Кваси Сонгуи
Описание:
Сериал рассказывает о друзьях, которые поступили в колледж Мидвестерна благодаря футбольным стипендиям.
Начало третьего учебного года принесло свои сюрпризы. Алекса перевели в основной состав и назначили капитаном команды. Тэд, в свою очередь, не попав в профи, слезно умоляет тренера взять его обратно. Бывшие супруги Дэниэлс переживают новый всплеск в своих отношениях. Мэри Джо пристрастилась к однополой любви. А Сэмми... все еще ищет себя.

Season 3, Episode 1: The Captain
Season 3, Episode 2: Dic Pics
Season 3, Episode 3: Thad's Back
Season 3, Episode 4: The Peak
Season 3, Episode 5: Training Day
Season 3, Episode 6: Blackout
Season 3, Episode 7: Superstition
Season 3, Episode 8: Fun Facts
Season 3, Episode 9: The C-Word
Season 3, Episode 10: One Week
Season 3, Episode 11: Death Penalty
Season 3, Episode 12: The Corn Field
Season 3, Episode 13: The Corn Field: Part Two
Тех. информация:
Качество: WEB-DLRip
Формат: MP4 PSP AVC
Кодек видео: x.264
Кодек аудио: AAC
Видео: 480x272 (16:9), 23.976 fps, AVC, x.264, ~ 608 kbps avg, 0.194 bit/pixel
Аудио: Russian 48 kHz, AAC-LC, 2/0 (L,R) ch, ABR, ~128 kbps

General
Complete name : E:\Ripped_PSP\Штат Голубая Гора (Blue Mountain State, 3 season)\Blue.Mountain.State.s03e01.webdl.rus.mp4
Format : MPEG-4
Format profile : Base Media
Codec ID : isom
File size : 124 MiB
Duration : 23mn 31s
Overall bit rate : 739 Kbps
Encoded date : UTC 2011-10-20 13:28:27
Tagged date : UTC 2011-10-20 13:28:27

Video
ID : 1
Format : AVC
Format/Info : Advanced Video Codec
Format profile : <a href="mailto:Main@L3.0" class="postLink">Main@L3.0</a>
Format settings, CABAC : Yes
Format settings, ReFrames : 3 frames
Codec ID : avc1
Codec ID/Info : Advanced Video Coding
Duration : 23mn 31s
Bit rate : 608 Kbps
Maximum bit rate : 2 496 Kbps
Width : 480 pixels
Height : 272 pixels
Display aspect ratio : 16:9
Frame rate mode : Constant
Frame rate : 23.976 fps
Color space : YUV
Chroma subsampling : 4:2:0
Bit depth : 8 bits
Scan type : Progressive
Bits/(Pixel*Frame) : 0.194
Stream size : 102 MiB (82%)
Writing library : x264 core 115 r1936 7a9e08d
Encoding settings : cabac=1 / ref=3 / deblock=1:-1:0 / analyse=0x1:0x131 / me=umh / subme=7 / psy=1 / psy_rd=1.00:0.20 / mixed_ref=1 / me_range=16 / chroma_me=1 / trellis=2 / 8x8dct=0 / cqm=0 / deadzone=21,11 / fast_pskip=0 / chroma_qp_offset=-3 / threads=6 / sliced_threads=0 / nr=0 / decimate=0 / interlaced=0 / bluray_compat=0 / constrained_intra=0 / bframes=3 / b_pyramid=0 / b_adapt=2 / b_bias=0 / direct=3 / weightb=1 / open_gop=0 / weightp=2 / keyint=250 / keyint_min=23 / scenecut=40 / intra_refresh=0 / rc_lookahead=60 / rc=2pass / mbtree=1 / bitrate=608 / ratetol=1.0 / qcomp=0.60 / qpmin=0 / qpmax=69 / qpstep=4 / cplxblur=20.0 / qblur=0.5 / ip_ratio=1.40 / aq=1:1.00
Encoded date : UTC 2011-10-20 13:28:27
Tagged date : UTC 2011-10-20 13:28:30

Audio
ID : 2
Format : AAC
Format/Info : Advanced Audio Codec
Format profile : LC
Codec ID : 40
Duration : 23mn 31s
Bit rate mode : Variable
Bit rate : 128 Kbps
Maximum bit rate : 150 Kbps
Channel(s) : 2 channels
Channel positions : Front: L R
Sampling rate : 48.0 KHz
Compression mode : Lossy
Stream size : 21.5 MiB (17%)
Encoded date : UTC 2011-10-20 13:28:29
Tagged date : UTC 2011-10-20 13:28:30


Трекер:  [ 14-Июл-2012 13:04 ]

  

Скачать .torrent

Размер .torrent файла 16 KB


Размер: 1.46 GB
Хэш (hash) релиза: 42cecffe22c140cd5ea0bf16357a0e3951d3a112
Подписка на обновления:

Еще никто не оставлял запись к записи скачать торрент [SERIAL] Штат Блу Маунтин Blue Mountain State . Будь первым!

!Обратная связь