Скачать через торрент [SERIAL4PSP] Во все тяжкие Breaking Bad Фильм бесплатно в хорошем качестве torrent

Скачивайте на UnionPeer.org фильмы через торрент без регистрации. Новинки кино в хорошем качестве через торрент. На UnionPeer.org можно скачать через торрент фильмы 2014 и 2015 годов. Самые новые фильмы.

Скачать торрент [SERIAL4PSP] Во все тяжкие Breaking Bad бесплатно через .torrent фильм мультфильм сериал

Если у вас наблюдаются проблемы со скриншотами, переходом по ссылками, скачиванием торрентов - проблемы в блокировщике рекламы AdBlock. #хорошегоДня!


Статистика раздачи
Размер:  8.71 GB   |    Зарегистрирован:  5 лет 4 месяца   |    .torrent скачан:  136 раз   |   
Раздают:  1  
   
Загрузка...
 
Автор Сообщение

Galfimbul

avatar Galfimbul


Breaking Bad
(Во все тяжкие)
Оригинальное Название: Breaking Bad
Год выхода: 2008-2010
Жанр: криминальная драма
Продолжительность: ~ 1 час (1 серия), ~ 45 мин
Кол-во Сезонов: 3 сезона
Кол-во Серий: 33 серий
Перевод: Профессиональный многоголосный закадровый (LostFilm)
Русские субтитры: нет
Режиссер: Адам Бернштейн

В ролях: Брайан Кренстон, Анна Ганн, АрДжи Митт, Арон Пол, Бетси Брендт, Дин Норрис
Описание:
Уолтер Уайт, преподаватель химии в университе. У него есть жена и сын-инвалид, жена ждет еще одного ребенка. Уолт уже не молод и в этом возрасте часто бывают кризисы, тем более нужно кормить семью, а на зарплату преподавателя не разгуляешься, поэтому он вынужден подрабатывать на автомойке, где его же студенты над ним насмехаются, а еще сын, чью инвалидность тоже постоянно осмеивают.

Уолт решает заняться с ним бизнесом про приготовлению метамфетамина, так как он на изломе, что ему терять: он бросил работу на автомойке, секс с женой ограничивается только рукоблудием с ее стороны, ему поставили диагноз — неоперабельный рак легких, да и свояк постоянно говорит, что метамфетамин приносит огромные деньги. Кто еще может приготовить чистейший метамфетамин, как не учитель химии?

Уолт и его напарник снимают трейлер и организуют там лабораторию, уехав перед тем в пустыню, подальше от глаз. Первая партия готова, напарник Уолта, Джесси идет ее реализовывать…
1. Пилот (Pilot)
2. Кот уже в мешке (The cat's in the bag)
3. ...а мешок уже в реке (...And the Bag's in the River)
4. Раковый больной (Cancer Man)
5. Серое вещество (Gray Matter)
6. Блеф на пустой руке (Crazy Handful of Nothin')
7. Тихий бизнес без суеты и напрягов (A No-Rough-Stuff-Type Deal)
1. Семьсот тридцать семь (Seven Thirty-Seven)
2. Попандос (Grilled)
3. Укус мертвой пчелы (Bit by a Dead Bee)
4. На дне (Down)
5. Бой товара (Breakage)
6. Ку-ку (Peekaboo)
7. Синий мет на черном рынке (Negro Y Azul)
8. Надо звонить Солу! (Better Call Saul)
9. 4 дня на природе (4 Days Out)
10. Всё (Over)
11. Мандала (Mandala)
12. Феникс (Phoenix)
13. Альбукерке (ABQ)
1. No Mas - Хватит! Дата премьеры 21 March 2010
2. Caballo Sin Nombre - Безымянный Конь (Многие видят второй смысл в слове "horse" (героин) и соответственно трактуют текст песни иначе. В немалой степени это и послужило причиной её огромной популярности и нахождения в топ-хитах в течение почти года (!) в 1972-73гг.) Дата премьеры 28 March 2010
3. I.F.T. - Я.П.Т. (аббревиатура от англ. I fucked Ted, «Я переспала с Тедом») Дата премьеры 4 April 2010
4. Green Light - Зеленый Свет - Дата премьеры 11 April 2010
5. Mas - Еще - Дата премьеры — 18 April 2010
6. Sunset - Закат - Дата премьеры — 25 April 2010
7. One Minute - Одна минута - Дата премьеры — 2 May 2010
8. I See You - Я вижу тебя - Дата премьеры — 9 May 2010
9. Kafkaesque - Кафкианский - Дата премьеры — 16 May 2010
10. Fly - Муха - Дата премьеры — 23 May 2010
11. Abiquiu - Эбикью - Дата премьеры — 30 May 2010
12. Half Measures - Полумеры - Дата премьеры — 6 June 2010
13. Full Measure - Полная мера - Дата премьеры — 13 June 2010

«Эмми»

2008 — Лучший актёр драматического сериала (Брайан Кранстон)
2008 — Outstanding Single-Camera Picture Editing for a Drama Series
2009 — Лучший актёр драматического сериала (Брайан Кранстон)
2009 — Outstanding Single Camera Picture Editing for a Drama Series

Качество: DVDRip
Формат: MP4
Видео кодек: H.264
Аудио кодек: AAC
Видео: AVC, 480x272 (1.765:1), 23.976 fps, 665 Kbps, 0.212 bit/pixel
Аудио: 128 kbps, 48.0 KHz, 2 ch
Релиз:
Перевод: В. Богданов
Озвучка: Студия "LostFilm"

General
Complete name : D:\Фильмы для PSP\Breaking Bad (1 Season) [PSP]\Breaking.Bad.S01E01.rus.LostFilm.TV.mp4
Format : MPEG-4
Format profile : Base Media
Codec ID : isom
File size : 332 MiB
Duration : 58mn 9s
Overall bit rate : 797 Kbps
Encoded date : UTC 2010-03-01 14:23:33
Tagged date : UTC 2010-03-01 14:23:33

Video
Format : AVC
Format/Info : Advanced Video Codec
Format profile : <a href="mailto:Main@L3.0" class="postLink">Main@L3.0</a>
Format settings, CABAC : Yes
Format settings, ReFrames : 2 frames
Codec ID : avc1
Codec ID/Info : Advanced Video Coding
Duration : 58mn 8s
Bit rate mode : Variable
Bit rate : 665 Kbps
Nominal bit rate : 675 Kbps
Maximum bit rate : 2 917 Kbps
Width : 480 pixels
Height : 272 pixels
Display aspect ratio : 16/9
Frame rate mode : Constant
Frame rate : 23.976 fps
Resolution : 24 bits
Colorimetry : 4:2:0
Scan type : Progressive
Bits/(Pixel*Frame) : 0.212
Stream size : 276 MiB (83%)
Writing library : x264 core 65 r999kMod cc51047
Encoding settings : cabac=1 / ref=2 / deblock=1:0:0 / analyse=0x1:0x131 / me=umh / subme=6 / psy_rd=1.0:0.0 / mixed_ref=1 / me_range=16 / chroma_me=1 / trellis=1 / 8x8dct=0 / cqm=0 / deadzone=21,11 / chroma_qp_offset=-2 / threads=2 / thread_queue=2 / nr=0 / decimate=1 / mbaff=0 / bframes=3 / b_pyramid=0 / b_adapt=1 / b_bias=0 / direct=1 / wpredb=1 / keyint=250 / keyint_min=25 / scenecut=40(pre) / rc=abr / bitrate=675 / ratetol=1.0 / qcomp=0.60 / qpmin=10 / qpmax=51 / qpstep=4 / ip_ratio=1.40 / pb_ratio=1.30 / aq=1:1.00 / cabac=1 / ref=2 / deblock=1:0:0 / analyse=0x1:0x131 / me=umh / subme=6 / psy_rd=1.0:0.0 / mixed_ref=1 / me_range=16 / chroma_me=1 / trellis=1 / 8x8dct=0 / cqm=0 / deadzone=21,11 / chroma_qp_offset=-2 / threads=2 / thread_queue=2 / nr=0 / decimate=1 / mbaff=0 / bframes=3 / b_pyramid=0 / b_adapt=1 / b_bias=0 / direct=1 / wpredb=1 / keyint=250 / keyint_min=25 / scenecut=40(pre) / rc=abr / bitrate=675 / ratetol=1.0 / qcomp=0.60 / qpmin=10 / qpmax=51 / qpstep=4 / ip_ratio=1.40 / pb_ratio=1.30 / aq=1:1.00
Encoded date : UTC 2010-03-01 14:23:33
Tagged date : UTC 2010-03-01 14:23:46

Audio
Format : AAC
Format/Info : Advanced Audio Codec
Format version : Version 4
Format profile : LC
Format settings, SBR : No
Codec ID : 40
Duration : 58mn 9s
Bit rate mode : Variable
Bit rate : 129 Kbps
Maximum bit rate : 144 Kbps
Channel(s) : 2 channels
Channel positions : L R
Sampling rate : 48.0 KHz
Resolution : 16 bits
Stream size : 53.6 MiB (16%)
Encoded date : UTC 2010-03-01 14:23:45
Tagged date : UTC 2010-03-01 14:23:46


Трекер:  [ 14-Июл-2012 13:02 ]

  

Скачать .torrent

Размер .torrent файла 51 KB


Размер: 8.71 GB
Хэш (hash) релиза: 52c5dac99b63617212e9fe1b17a4eeda2850ae02
Подписка на обновления:

Еще никто не оставлял запись к записи скачать торрент [SERIAL4PSP] Во все тяжкие Breaking Bad . Будь первым!

!Обратная связь