Скачать через торрент [SERIAL] Кости Bones Фильм бесплатно в хорошем качестве torrent

Скачивайте на UnionPeer.org фильмы через торрент без регистрации. Новинки кино в хорошем качестве через торрент. На UnionPeer.org можно скачать через торрент фильмы 2014 и 2015 годов. Самые новые фильмы.

Скачать торрент [SERIAL] Кости Bones бесплатно через .torrent фильм мультфильм сериал

Если у вас наблюдаются проблемы со скриншотами, переходом по ссылками, скачиванием торрентов - проблемы в блокировщике рекламы AdBlock. #хорошегоДня!


Статистика раздачи
Размер:  2.93 GB   |    Зарегистрирован:  5 лет 4 месяца   |    .torrent скачан:  98 раз   |   
Раздают:  1  
   
Загрузка...
 
Автор Сообщение

Galfimbul

avatar Galfimbul



Кости
«To Unravel A Murder, You Have To Strip It To The Bone.»
Оригинальное название: Bones
Год выпуска: 2011-2012
Страна: США
Студия: ''20th Century Fox Television / Far Field Productions''
Номер сезона: 7 сезон (17 эпизодов)
Статус сериала: идет показ (канал TNT)
Жанр: мелодрама, драма, криминал, детектив
Продолжительность: ~ 45 мин эпизод
Перевод: профессиональный, многоголосый (релиз группы: )
Перевод: Lub_a, Сведение: Vitall Digitall, Озвучка: Лира Грим, Светлана Доманова, Татьяна Оболевич, Марк Дэйвс и Алексей Кузнецов
Режиссер: Стивен ДеПол, Йен Тойнтон, Аллен Крокер
Автор идеи: Харт Хэнсон, Джанет Лин, Джош Берман
Продюссер: Бэрри Джозефсон, Эмили Дешанель, Иэн Тойнтон
В ролях: Эмили Дешанель, Дэвид Бореаназ, Михаэлла Конлин, Ти-Джей Тайн, Тамара Тейлор, Эрик Миллеган, Джон Фрэнсис Дейли, Джонатан Адамс, Патриция Белчер, Дэвид Гринман
Описание:
Главная героиня сериала - доктор Темперанс Бреннан, блестящий судебный антрополог работает на ФБР, а в свободное время пишет романы. Темперанс владеет особым методом идентификации останков, что позволяет ей докапываться до истины и раскрывать преступления даже тогда, когда обычные методы криминалистики уже не действуют. В буквальном смысле слова она находит «ключи» к преступлениям в костях жертвы. Именно поэтому, возможно, ее часто привлекают к расследованию нераскрытых дел или дел с большим сроком давности.

Очень часто Темперанс приходится работать в паре со специальным агентом того же бюро Сили Бутом из отдела по расследованию убийств. Бут, бывший армейский снайпер, весьма скептический относится и к науке, и к ее представителям, презрительно называя их «очкарики». Его точка зрения на раскрытие преступлений весьма проста: узнать правду можно лишь используя старомодные методы ведения дел, т.е. «работая» с теми, кто жив, - свидетелями и подозреваемыми. Столкновение личных и профессиональных интересов героев сериала «Кости» проходит центральной темой во всех сериях.

Season 7, Episode 1: The Memories in the Shallow Grave
Season 7, Episode 2: The Hot Dog in the Competition
Season 7, Episode 3: The Prince In The Plastic
Season 7, Episode 4: The Male in the Mail
Season 7, Episode 5: The Twist in the Twister
Season 7, Episode 6: The Crack in the Code
Season 7, Episode 7: The Prisoner in the Pipe
Season 7, Episode 8: The Bump in the Road
Season 7, Episode 9: The Don't in the Do
Season 7, Episode 10: The Warrior in the Wuss
Season 7, Episode 11: The Family and the Feud
Season 7, Episode 12: The Suit on the Set
Season 7, Episode 13: The Past in the Present
Тех. информация:
Качество: WEB-DLRip
Формат: MP4 PSP AVC
Кодек видео: H.264
Кодек аудио: AAC
Видео: 480x272 (16:9), 23.976 fps, AVC, H.264, ~ 608 kbps avg, 0.194 bit/pixel
Аудио: Russian 48 kHz, AAC-LC, 2/0 (L,R) ch, ABR, ~128 kbps

General
Complete name : E:\Ripped_PSP\Кости (Bones, 7 season)\bones.s07e01.webdl.rus.mp4
Format : MPEG-4
Format profile : Base Media
Codec ID : isom
File size : 231 MiB
Duration : 43mn 34s
Overall bit rate : 740 Kbps
Encoded date : UTC 2011-11-06 08:29:33
Tagged date : UTC 2011-11-06 08:29:33

Video
ID : 1
Format : AVC
Format/Info : Advanced Video Codec
Format profile : <a href="mailto:Main@L3.0" class="postLink">Main@L3.0</a>
Format settings, CABAC : Yes
Format settings, ReFrames : 3 frames
Codec ID : avc1
Codec ID/Info : Advanced Video Coding
Duration : 43mn 34s
Bit rate : 608 Kbps
Maximum bit rate : 3 277 Kbps
Width : 480 pixels
Height : 272 pixels
Display aspect ratio : 16:9
Frame rate mode : Constant
Frame rate : 23.976 fps
Color space : YUV
Chroma subsampling : 4:2:0
Bit depth : 8 bits
Scan type : Progressive
Bits/(Pixel*Frame) : 0.194
Stream size : 189 MiB (82%)
Writing library : x264 core 119 r2106 07efeb4
Encoding settings : cabac=1 / ref=3 / deblock=1:-2:0 / analyse=0x1:0x131 / me=umh / subme=10 / psy=1 / psy_rd=1.00:0.20 / mixed_ref=1 / me_range=16 / chroma_me=1 / trellis=2 / 8x8dct=0 / cqm=0 / deadzone=21,11 / fast_pskip=0 / chroma_qp_offset=-3 / threads=6 / sliced_threads=0 / nr=0 / decimate=0 / interlaced=0 / bluray_compat=0 / constrained_intra=0 / bframes=3 / b_pyramid=0 / b_adapt=2 / b_bias=0 / direct=3 / weightb=1 / open_gop=0 / weightp=2 / keyint=250 / keyint_min=23 / scenecut=40 / intra_refresh=0 / rc_lookahead=60 / rc=2pass / mbtree=1 / bitrate=608 / ratetol=1.0 / qcomp=0.60 / qpmin=0 / qpmax=69 / qpstep=4 / cplxblur=20.0 / qblur=0.5 / ip_ratio=1.40 / aq=1:1.00
Encoded date : UTC 2011-11-06 08:29:33
Tagged date : UTC 2011-11-06 08:29:40

Audio
ID : 2
Format : AAC
Format/Info : Advanced Audio Codec
Format profile : LC
Codec ID : 40
Duration : 43mn 34s
Bit rate mode : Variable
Bit rate : 128 Kbps
Maximum bit rate : 143 Kbps
Channel(s) : 2 channels
Channel positions : Front: L R
Sampling rate : 48.0 KHz
Compression mode : Lossy
Stream size : 39.9 MiB (17%)
Encoded date : UTC 2011-11-06 08:29:39
Tagged date : UTC 2011-11-06 08:29:40


Трекер:  [ 14-Июл-2012 13:02 ]

  

Скачать .torrent

Размер .torrent файла 16 KB


Размер: 2.93 GB
Хэш (hash) релиза: 1189221f0c467093aedc389cfd7975b89ed4907d
Подписка на обновления:

Еще никто не оставлял запись к записи скачать торрент [SERIAL] Кости Bones . Будь первым!

!Обратная связь