Скачать через торрент [SERIAL4PSP] Анатомия Грей Фильм бесплатно в хорошем качестве torrent

Скачивайте на UnionPeer.org фильмы через торрент без регистрации. Новинки кино в хорошем качестве через торрент. На UnionPeer.org можно скачать через торрент фильмы 2014 и 2015 годов. Самые новые фильмы.

Скачать торрент [SERIAL4PSP] Анатомия Грей бесплатно через .torrent фильм мультфильм сериал

Если у вас наблюдаются проблемы со скриншотами, переходом по ссылками, скачиванием торрентов - проблемы в блокировщике рекламы AdBlock. #хорошегоДня!


Статистика раздачи
Размер:  5.34 GB   |    Зарегистрирован:  5 лет 1 месяц   |    .torrent скачан:  49 раз   |   
Раздают:  1  
   
Загрузка...
 
Автор Сообщение

Galfimbul

avatar Galfimbul




Анатомия страсти (Анатомия Грей)
«Operations. Temptations. Frustrations.»
Оригинальное название: Grey's Anatomy
Год выпуска: 2009-2010
Страна: США
Студия: ''ABC Studios / The Mark Gordon Company / Touchstone Television''
Номер сезона: 6 сезон (24 эпизода)
Статус сериала: съёмки продолжаются
Жанр: драма, комедия, медицина
Продолжительность: ~ 44 мин эпизод
Перевод: профессиональный, многоголосый (закадровый) [ ТВ канал: ]
Режиссер: Шонда Раймз
Автор идеи: Шонда Раймс, Уильям Харпер, Питер Ноуолк
Продюссер: Бетси Бирс, Лиза Тейлор, Дебора Кан
В ролях: Эллен Помпео, Кэтрин Хайгл, Т.Р. Найт, Сандра О, Джастин Чэмберс, Патрик Дэмпси, Брук Смит, Сара Рамирез, Эрик Дэйнс, Джеймс Пикенс, Чэндра Уилсон
Описание:
Продолжение знаменитой медицинской драмы о работе и личных отношениях хирургов сиэтлской больницы. Каждый день наполнен болью и счастьем, ссорами и примирениями, сложными дилеммами и необходимостью принять моментальное решение от которого зависит жизнь человека. В центре сюжета хирург - Мередит... В больнице разразились междоусобные войны.

Season 6, Episode 1: Good Mourning
Season 6, Episode 2: Goodbye
Season 6, Episode 3: I Always Feel Like Somebody's Watchin' Me
Season 6, Episode 4: Tainted Obligation
Season 6, Episode 5: Invasion
Season 6, Episode 6: I Saw What I Saw
Season 6, Episode 7: Give Peace a Chance
Season 6, Episode 8: Invest in Love
Season 6, Episode 9: New History
Season 6, Episode 10: Holidaze
Season 6, Episode 11: Blink
Season 6, Episode 12: I Like You So Much Better When You're Naked
Season 6, Episode 13: State of Love and Trust
Season 6, Episode 14: Valentine's Day Massacre
Season 6, Episode 15: The Time Warp
Season 6, Episode 16: Perfect Little Accident
Season 6, Episode 17: Push
Season 6, Episode 18: Suicide Is Painless
Season 6, Episode 19: Sympathy for the Parents
Season 6, Episode 20: Hook, Line and Sinner
Season 6, Episode 21: How Insensitive
Season 6, Episode 22: Shiny Happy People
Season 6, Episode 23: Sanctuary
Season 6, Episode 24: Death and All His Friends
Тех. информация:
Качество: WEB-DLRip
Формат: MP4 PSP AVC
Кодек видео: H.264
Кодек аудио: AAC
Видео: 480x272 (16:9), 23.976 fps, AVC, H.264, ~ 608 kbps avg, 0.194 bit/pixel
Аудио: Russian 48 kHz, AAC-LC, 2/0 (L,R) ch, ABR, ~128 kbps

General
Complete name : J:\Ripped_PSP\Анатомия Грей (Grey's Anatomy, 6 сезон)\Greys.Anatomy.s06e01.webdl.rus.mp4
Format : MPEG-4
Format profile : Base Media
Codec ID : isom
File size : 229 MiB
Duration : 43mn 30s
Overall bit rate : 735 Kbps
Encoded date : UTC 2010-11-08 08:23:08
Tagged date : UTC 2010-11-08 08:23:08

Video
ID : 1
Format : AVC
Format/Info : Advanced Video Codec
Format profile : <a href="mailto:Main@L3.0" class="postLink">Main@L3.0</a>
Format settings, CABAC : Yes
Format settings, ReFrames : 2 frames
Codec ID : avc1
Codec ID/Info : Advanced Video Coding
Duration : 43mn 30s
Bit rate mode : Variable
Bit rate : 608 Kbps
Maximum bit rate : 2 043 Kbps
Width : 480 pixels
Height : 272 pixels
Display aspect ratio : 16:9
Frame rate mode : Constant
Frame rate : 23.976 fps
Color space : YUV
Chroma subsampling : 4:2:0
Bit depth : 8 bits
Scan type : Progressive
Bits/(Pixel*Frame) : 0.194
Stream size : 187 MiB (82%)
Writing library : x264 core 86 r1442M 781d300
Encoding settings : cabac=1 / ref=2 / deblock=1:0:0 / analyse=0x1:0x131 / me=hex / subme=7 / psy=1 / psy_rd=1.00:0.00 / mixed_ref=1 / me_range=16 / chroma_me=1 / trellis=1 / 8x8dct=0 / cqm=0 / deadzone=21,11 / fast_pskip=1 / chroma_qp_offset=-2 / threads=2 / sliced_threads=0 / nr=0 / decimate=1 / interlaced=0 / constrained_intra=0 / bframes=3 / b_pyramid=0 / b_adapt=2 / b_bias=0 / direct=3 / wpredb=1 / wpredp=2 / keyint=230 / keyint_min=23 / scenecut=40 / intra_refresh=0 / rc_lookahead=40 / rc=cbr / mbtree=1 / bitrate=608 / ratetol=0.2 / qcomp=0.60 / qpmin=10 / qpmax=51 / qpstep=4 / vbv_maxrate=2000 / vbv_bufsize=2000 / ip_ratio=1.41 / aq=1:1.00 / pulldown=0 / nal_hrd=none
Language : English
Tagged date : UTC 2010-11-08 08:23:36

Audio
ID : 2
Format : AAC
Format/Info : Advanced Audio Codec
Format version : Version 4
Format profile : LC
Format settings, SBR : No
Codec ID : 40
Duration : 43mn 30s
Bit rate mode : Variable
Bit rate : 129 Kbps
Maximum bit rate : 158 Kbps
Channel(s) : 2 channels
Channel positions : Front: L R
Sampling rate : 48.0 KHz
Stream size : 40.0 MiB (18%)
Encoded date : UTC 2010-11-08 08:23:35
Tagged date : UTC 2010-11-08 08:23:36


Трекер:  [ 14-Июл-2012 13:01 ]

  

Скачать .torrent

Размер .torrent файла 28 KB


Размер: 5.34 GB
Хэш (hash) релиза: 990d4e2346716b2aa6920166307814c4e82c1698
Подписка на обновления:

Еще никто не оставлял запись к записи скачать торрент [SERIAL4PSP] Анатомия Грей . Будь первым!

!Обратная связь