Скачать через торрент [SERIAL] Анатомия Грей Фильм бесплатно в хорошем качестве torrent

Скачивайте на UnionPeer.org фильмы через торрент без регистрации. Новинки кино в хорошем качестве через торрент. На UnionPeer.org можно скачать через торрент фильмы 2014 и 2015 годов. Самые новые фильмы.

Скачать торрент [SERIAL] Анатомия Грей бесплатно через .torrent фильм мультфильм сериал

Если у вас наблюдаются проблемы со скриншотами, переходом по ссылками, скачиванием торрентов - проблемы в блокировщике рекламы AdBlock. #хорошегоДня!


Статистика раздачи
Размер:  5.35 GB   |    Зарегистрирован:  5 лет 1 месяц   |    .torrent скачан:  124 раза   |   
Раздают:  1  
   
Загрузка...
 
Автор Сообщение

Galfimbul

avatar Galfimbul




Анатомия страсти (Анатомия Грей)
«Operations. Temptations. Frustrations.»
Оригинальное название: Grey's Anatomy
Год выпуска: 2011-2012
Страна: США
Студия: ''ABC Studios / The Mark Gordon Company / Touchstone Television''
Номер сезона: 8 сезон (24 эпизода)
Статус сериала: идет показ
Жанр: драма, комедия, медицина
Продолжительность: ~ 44 мин эпизод
Перевод: профессиональный, двухголосый, закадровый (релиз группы: )
Режиссер: Шонда Раймз
Автор идеи: Шонда Раймс, Уильям Харпер, Питер Ноуолк
Продюссер: Бетси Бирс, Лиза Тейлор, Дебора Кан
В ролях: Эллен Помпео, Кэтрин Хайгл, Т.Р. Найт, Сандра О, Джастин Чэмберс, Патрик Дэмпси, Брук Смит, Сара Рамирез, Эрик Дэйнс, Джеймс Пикенс, Чэндра Уилсон
Описание:
Продолжение знаменитой медицинской драмы о работе и личных отношениях хирургов сиэтлской больницы. Каждый день наполнен болью и счастьем, ссорами и примирениями, сложными дилеммами и необходимостью принять моментальное решение от которого зависит жизнь человека. В центре сюжета хирург - Мередит...

Season 8, Episode 1: Free Falling
Season 8, Episode 2: She's Gone
Season 8, Episode 3: Take the Lead
Season 8, Episode 4: What Is It About Men
Season 8, Episode 5: Love, Loss and Legacy
Season 8, Episode 6: Poker Face
Season 8, Episode 7: Put Me in, Coach
Season 8, Episode 8: Heart-Shaped Box
Season 8, Episode 9: Dark Was the Night
Season 8, Episode 10: Suddenly
Season 8, Episode 11: This Magic Moment
Season 8, Episode 12: Hope for the Hopeless
Season 8, Episode 13: If / Then
Season 8, Episode 14: All You Need is Love
Season 8, Episode 15: Have You Seen Me Lately?
Season 8, Episode 16: If Only You Were Lonely
Season 8, Episode 17: One Step Too Far
Season 8, Episode 18: The Lion Sleeps Tonight
Season 8, Episode 19: Support System
Season 8, Episode 20: The Girl With No Name
Season 8, Episode 21: Moment of Truth
Season 8, Episode 22: Let the Bad Times Roll
Season 8, Episode 23: Migration
Season 8, Episode 24: Flight (season finale)
Тех. информация:
Источник: WEB-DL
Качество: WEB-DLRip
Формат: MP4 PSP AVC
Кодек видео: H.264
Кодек аудио: AAC
Видео: 480x272 (16:9), 23.976 fps, AVC, H.264, ~ 608 kbps avg, 0.194 bit/pixel
Аудио: Russian 48 kHz, AAC-LC, 2/0 (L,R) ch, ABR, ~128 kbps

General
Complete name : E:\Ripped_PSP\Анатомия Грей (Grey's Anatomy, 8 сезон)\Grey's.Anatomy.s08e01.webdl.rus.mp4
Format : MPEG-4
Format profile : Base Media
Codec ID : isom
File size : 229 MiB
Duration : 43mn 12s
Overall bit rate : 740 Kbps
Encoded date : UTC 2011-10-01 14:30:36
Tagged date : UTC 2011-10-01 14:30:36

Video
ID : 1
Format : AVC
Format/Info : Advanced Video Codec
Format profile : <a href="mailto:Main@L3.0" class="postLink">Main@L3.0</a>
Format settings, CABAC : Yes
Format settings, ReFrames : 3 frames
Codec ID : avc1
Codec ID/Info : Advanced Video Coding
Duration : 43mn 12s
Bit rate : 608 Kbps
Maximum bit rate : 2 033 Kbps
Width : 480 pixels
Height : 272 pixels
Display aspect ratio : 16:9
Frame rate mode : Constant
Frame rate : 23.976 fps
Color space : YUV
Chroma subsampling : 4:2:0
Bit depth : 8 bits
Scan type : Progressive
Bits/(Pixel*Frame) : 0.194
Stream size : 188 MiB (82%)
Writing library : x264 core 115 r1936 7a9e08d
Encoding settings : cabac=1 / ref=3 / deblock=1:-1:0 / analyse=0x1:0x131 / me=umh / subme=7 / psy=1 / psy_rd=1.00:0.20 / mixed_ref=1 / me_range=16 / chroma_me=1 / trellis=2 / 8x8dct=0 / cqm=0 / deadzone=21,11 / fast_pskip=0 / chroma_qp_offset=-3 / threads=3 / sliced_threads=0 / nr=0 / decimate=0 / interlaced=0 / bluray_compat=0 / constrained_intra=0 / bframes=3 / b_pyramid=0 / b_adapt=2 / b_bias=0 / direct=3 / weightb=1 / open_gop=0 / weightp=2 / keyint=250 / keyint_min=23 / scenecut=40 / intra_refresh=0 / rc_lookahead=60 / rc=2pass / mbtree=1 / bitrate=608 / ratetol=1.0 / qcomp=0.60 / qpmin=0 / qpmax=69 / qpstep=4 / cplxblur=20.0 / qblur=0.5 / ip_ratio=1.40 / aq=1:1.00
Encoded date : UTC 2011-10-01 14:30:36
Tagged date : UTC 2011-10-01 14:30:49

Audio
ID : 2
Format : AAC
Format/Info : Advanced Audio Codec
Format profile : LC
Codec ID : 40
Duration : 43mn 12s
Bit rate mode : Variable
Bit rate : 128 Kbps
Maximum bit rate : 146 Kbps
Channel(s) : 2 channels
Channel positions : Front: L R
Sampling rate : 48.0 KHz
Compression mode : Lossy
Stream size : 39.5 MiB (17%)
Encoded date : UTC 2011-10-01 14:30:48
Tagged date : UTC 2011-10-01 14:30:49


Трекер:  [ 14-Июл-2012 10:39 ]

  

Скачать .torrent

Размер .torrent файла 15 KB


Размер: 5.35 GB
Хэш (hash) релиза: 1e6f6a13e92c80a825553e56fee88569fafd3868
Подписка на обновления:

Торренты, похожие на [SERIAL] Анатомия Грей скачать торрент

Форум Название Автор Размер S L Добавлен
Видео для Консолей ·· [SERIAL] Анатомия Грей (Анатомия страсти) / Greys Anatomy [Шонда Раймз][5 сезон][24 из 24][2008 г., комедия, драма, HDTVRip] Galfimbul 58557516855.45 GB 0 0 1342260420

13:07

14-Июл-12

Еще никто не оставлял запись к записи скачать торрент [SERIAL] Анатомия Грей . Будь первым!

!Обратная связь