Скачать через торрент [SERIAL4PSP] Блудливая Калифорния Californication Фильм бесплатно в хорошем качестве torrent

Скачивайте на UnionPeer.org фильмы через торрент без регистрации. Новинки кино в хорошем качестве через торрент. На UnionPeer.org можно скачать через торрент фильмы 2014 и 2015 годов. Самые новые фильмы.

Скачать торрент [SERIAL4PSP] Блудливая Калифорния Californication бесплатно через .torrent фильм мультфильм сериал

Если у вас наблюдаются проблемы со скриншотами, переходом по ссылками, скачиванием торрентов - проблемы в блокировщике рекламы AdBlock. #хорошегоДня!


Статистика раздачи
Размер:  1.74 GB   |    Зарегистрирован:  5 лет 1 месяц   |    .torrent скачан:  39 раз   |   
Раздают:  1  
   
Загрузка...
 
Автор Сообщение

Galfimbul

avatar Galfimbul




Блудливая Калифорния
«Hank Moody... No man is more committed to a midlife crisis.»
Оригинальное название: Californication
Год выпуска: 2008
Страна: США
Студия: ''Showtime / Twilight Time Films / Aggressive Mediocrity''
Номер сезона: 2-й сезон (12 эпизодов)
Статус сериала: съёмки продолжаются
Жанр: драма, комедия
Продолжительность: ~ 30 мин эпизод
Перевод: русский, многоголосый (закадровый) ©
Перевод: Dara, shpan, Редактор: Freiheit, Озвучка: студия «Новамедиа», Роли озвучивали: Sawyer888, Freiheit
Режиссер: Дэвид Фон Энкен, Сет Манн, Джон Дал
Автор идеи: Том Капинос, Джина Фатторе, Гэбриел Рот
Продюссер: Том Киф, Илди Модрович, Эрик Вейнберг
В ролях: Дэвид Духовны, Наташа МакЭлхоун, Эван Хэндлер, Мадлен Мартин, Памела Адлон, Мадлен Зима
Описание:
Название сериала образовано слиянием слов: Californication = California + Fornication (англ. Fornication . внебрачная связь, блуд.)

Популярный писатель Хэнк Муди преодолел творческий и личностный кризис. Он написал новый роман и вернул любовь своей жизни. И они уехали навстречу закату, the end.

Happy end. Но бывает ли так в реальности? Сможет ли Хэнк удержать свое счастье?
Внимание! В сериале присутствует ненормативная лексика и сцены с обнаженной натурой!

Season 2, Episode 1: Slip of the Tongue / Язык мой — враг мой
Season 2, Episode 2: The Great Ashby / Великий Эшби
Season 2, Episode 3: No Way to Treat a Lady / С леди так не обращаются
Season 2, Episode 4: The Raw & the Cooked / Сырое и приготовленное
Season 2, Episode 5: Vaginatown / Вагинальный квартал
Season 2, Episode 6: Coke Dick & First Kick / Кокаиновый висяк и Первый ништяк
Season 2, Episode 7: In a Lonely Place / Одиночество вдвоем
Season 2, Episode 8: Going Down and Out in Beverly Hills / Потерять все в Беверли Хиллз
Season 2, Episode 9: La Ronde / Хоровод
Season 2, Episode 10: In Utero / (лат. "В утробе")
Season 2, Episode 11: Blues from Laurel Canyon / Блюз Лаврового Каньона
Season 2, Episode 12: La Petite Mort / Маленькая смерть
Тех. информация:
Качество: WEB-DLRip
Формат: MP4 PSP AVC
Кодек видео: H.264
Кодек аудио: AAC
Видео: 480x272 (16:9), 23.976 fps, AVC, H.264, ~ 608 kbps avg, 0.194 bit/pixel
Аудио: Russian 48 kHz, AAC-LC, 2/0 (L,R) ch, ABR, ~128 kbps

General
Complete name : E:\Ripped_PSP\Блудливая Калифорния (Californication)\Californication - 2 season\Californication.s02e01.webdl.rus.mp4
Format : MPEG-4
Format profile : Base Media
Codec ID : isom
File size : 150 MiB
Duration : 28mn 28s
Overall bit rate : 736 Kbps
Encoded date : UTC 2010-12-24 00:46:03
Tagged date : UTC 2010-12-24 00:46:03

Video
ID : 1
Format : AVC
Format/Info : Advanced Video Codec
Format profile : <a href="mailto:Main@L3.0" class="postLink">Main@L3.0</a>
Format settings, CABAC : Yes
Format settings, ReFrames : 3 frames
Codec ID : avc1
Codec ID/Info : Advanced Video Coding
Duration : 28mn 28s
Bit rate mode : Variable
Bit rate : 608 Kbps
Maximum bit rate : 4 923 Kbps
Width : 480 pixels
Height : 272 pixels
Display aspect ratio : 16:9
Frame rate mode : Constant
Frame rate : 23.976 fps
Color space : YUV
Chroma subsampling : 4:2:0
Bit depth : 8 bits
Scan type : Progressive
Bits/(Pixel*Frame) : 0.194
Stream size : 124 MiB (83%)
Title : Imported with GPAC 0.4.6-DEV (build 1)
Writing library : x264 core 92 r1510 33d382a
Encoding settings : cabac=1 / ref=3 / deblock=1:-1:0 / analyse=0x1:0x131 / me=umh / subme=7 / psy=1 / psy_rd=1.00:0.20 / mixed_ref=1 / me_range=16 / chroma_me=1 / trellis=2 / 8x8dct=0 / cqm=0 / deadzone=21,11 / fast_pskip=0 / chroma_qp_offset=-3 / threads=3 / sliced_threads=0 / nr=0 / decimate=1 / interlaced=0 / constrained_intra=0 / bframes=3 / b_pyramid=0 / b_adapt=2 / b_bias=0 / direct=3 / wpredb=1 / wpredp=2 / keyint=250 / keyint_min=25 / scenecut=40 / intra_refresh=0 / rc_lookahead=60 / rc=2pass / mbtree=1 / bitrate=608 / ratetol=1.0 / qcomp=0.60 / qpmin=10 / qpmax=51 / qpstep=4 / cplxblur=20.0 / qblur=0.5 / ip_ratio=1.40 / aq=1:1.00
Encoded date : UTC 2010-12-19 19:42:35
Tagged date : UTC 2010-12-24 00:46:06

Audio
ID : 2
Format : AAC
Format/Info : Advanced Audio Codec
Format version : Version 4
Format profile : LC
Format settings, SBR : No
Codec ID : 40
Duration : 27mn 51s
Bit rate mode : Variable
Bit rate : 128 Kbps
Maximum bit rate : 177 Kbps
Channel(s) : 2 channels
Channel positions : Front: L R
Sampling rate : 48.0 KHz
Stream size : 25.4 MiB (17%)
Encoded date : UTC 2010-12-24 00:46:05
Tagged date : UTC 2010-12-24 00:46:06


Трекер:  [ 14-Июл-2012 10:43 ]

  

Скачать .torrent

Размер .torrent файла 18 KB


Размер: 1.74 GB
Хэш (hash) релиза: bac893b2c775fba4ecdbffce2ea6181c372bd56a
Подписка на обновления:

Еще никто не оставлял запись к записи скачать торрент [SERIAL4PSP] Блудливая Калифорния Californication . Будь первым!

!Обратная связь