Скачать через торрент [SERIAL] Блудливая Калифорния Californication Фильм бесплатно в хорошем качестве torrent

Скачивайте на UnionPeer.org фильмы через торрент без регистрации. Новинки кино в хорошем качестве через торрент. На UnionPeer.org можно скачать через торрент фильмы 2014 и 2015 годов. Самые новые фильмы.

Скачать торрент [SERIAL] Блудливая Калифорния Californication бесплатно через .torrent фильм мультфильм сериал

Если у вас наблюдаются проблемы со скриншотами, переходом по ссылками, скачиванием торрентов - проблемы в блокировщике рекламы AdBlock. #хорошегоДня!


Статистика раздачи
Размер:  1.77 GB   |    Зарегистрирован:  5 лет 1 месяц   |    .torrent скачан:  377 раз   |   
Раздают:  1  
   
Загрузка...
 
Автор Сообщение

Galfimbul

avatar Galfimbul




Блудливая Калифорния
«Hank Moody... No man is more committed to a midlife crisis.»
Оригинальное название: Californication
Год выпуска: 2007
Страна: США
Студия: ''Showtime / Twilight Time Films / Aggressive Mediocrity''
Номер сезона: 1-й сезон (12 эпизодов)
Статус сериала: съёмки продолжаются
Жанр: драма, комедия
Продолжительность: ~ 30 мин эпизод
Перевод: закадровый, одноголосый ©
Перевод: Dara, Подготовка видео: Arucard, Монтаж и работа со звуком: btf, fedosov, Arucard, Озвучка: Sawyer888
Режиссер: Дэвид Фон Энкен, Сет Манн, Джон Дал
Автор идеи: Том Капинос, Джина Фатторе, Гэбриел Рот
Продюссер: Том Киф, Илди Модрович, Эрик Вейнберг
В ролях: Дэвид Духовны, Наташа МакЭлхоун, Эван Хэндлер, Мадлен Мартин, Памела Адлон, Мадлен Зима
Описание:
Талантливый и некогда известный писатель Хэнк Муди переживает творческий кризис. Отсутствие вдохновения он с лихвой компенсирует алкоголем, наркотиками и красивыми женщинами. Подкупающая прямота, чувство юмора и яркая харизма привлекают к нему сердца калифорнийских красавиц. Но его сердце занято — он любящий отец своей 13-летней дочери, и всё ещё влюблён в её маму — свою бывшую подружку…
Внимание! В сериале присутствует ненормативная лексика и сцены с обнаженной натурой!

Season 1, Episode 1: Pilot / Пилотная серия
Season 1, Episode 2: Hell-A Woman / Женщины Лос-Анжелеса
Season 1, Episode 3: The Whore of Babylon / Вавилонская блудница
Season 1, Episode 4: Fear and Loathing at the Fundraiser / Страх и ненависть благотворительности
Season 1, Episode 5: LOL / О.К.С.
Season 1, Episode 6: Absinthe Makes the Heart Grow Fonder / Абсент пробуждает нежные чувства
Season 1, Episode 7: Girls, Interrupted / Девочки, Интермедия
Season 1, Episode 8: California Son / Калифорнийский сын
Season 1, Episode 9: Filthy Lucre / Презренный металл
Season 1, Episode 10: The Devil's Threesome / Адская групповушка
Season 1, Episode 11: Turn the Page / Перевернуть страницу
Season 1, Episode 12: The Last Waltz / Последний вальс
Тех. информация:
Качество: WEB-DLRip
Формат: MP4 PSP AVC
Кодек видео: H.264
Кодек аудио: AAC
Видео: 480x272 (16:9), 23.976 fps, AVC, H.264, ~ 608 kbps avg, 0.194 bit/pixel
Аудио: Russian 48 kHz, AAC-LC, 2/0 (L,R) ch, ABR, ~128 kbps

General
Complete name : E:\Ripped_PSP\Блудливая Калифорния (Californication)\1 season\Californication.s01e01.webdl.rus.mp4
Format : MPEG-4
Format profile : Base Media
Codec ID : isom
File size : 175 MiB
Duration : 33mn 1s
Overall bit rate : 740 Kbps
Encoded date : UTC 2010-12-17 17:51:43
Tagged date : UTC 2010-12-17 17:51:43

Video
ID : 1
Format : AVC
Format/Info : Advanced Video Codec
Format profile : <a href="mailto:Main@L3.0" class="postLink">Main@L3.0</a>
Format settings, CABAC : Yes
Format settings, ReFrames : 3 frames
Codec ID : avc1
Codec ID/Info : Advanced Video Coding
Duration : 33mn 1s
Bit rate mode : Variable
Bit rate : 608 Kbps
Maximum bit rate : 2 424 Kbps
Width : 480 pixels
Height : 272 pixels
Display aspect ratio : 16:9
Frame rate mode : Constant
Frame rate : 23.976 fps
Color space : YUV
Chroma subsampling : 4:2:0
Bit depth : 8 bits
Scan type : Progressive
Bits/(Pixel*Frame) : 0.194
Stream size : 144 MiB (82%)
Title : Imported with GPAC 0.4.6-DEV (build 1)
Writing library : x264 core 92 r1510 33d382a
Encoding settings : cabac=1 / ref=3 / deblock=1:-1:0 / analyse=0x1:0x131 / me=umh / subme=7 / psy=1 / psy_rd=1.00:0.20 / mixed_ref=1 / me_range=16 / chroma_me=1 / trellis=2 / 8x8dct=0 / cqm=0 / deadzone=21,11 / fast_pskip=0 / chroma_qp_offset=-3 / threads=3 / sliced_threads=0 / nr=0 / decimate=1 / interlaced=0 / constrained_intra=0 / bframes=3 / b_pyramid=0 / b_adapt=2 / b_bias=0 / direct=3 / wpredb=1 / wpredp=2 / keyint=250 / keyint_min=25 / scenecut=40 / intra_refresh=0 / rc_lookahead=60 / rc=2pass / mbtree=1 / bitrate=608 / ratetol=1.0 / qcomp=0.60 / qpmin=10 / qpmax=51 / qpstep=4 / cplxblur=20.0 / qblur=0.5 / ip_ratio=1.40 / aq=1:1.00
Encoded date : UTC 2010-12-17 17:51:43
Tagged date : UTC 2010-12-17 17:51:49

Audio
ID : 2
Format : AAC
Format/Info : Advanced Audio Codec
Format version : Version 4
Format profile : LC
Format settings, SBR : No
Codec ID : 40
Duration : 33mn 1s
Bit rate mode : Variable
Bit rate : 128 Kbps
Maximum bit rate : 143 Kbps
Channel(s) : 2 channels
Channel positions : Front: L R
Sampling rate : 48.0 KHz
Stream size : 30.2 MiB (17%)
Encoded date : UTC 2010-12-17 17:51:48
Tagged date : UTC 2010-12-17 17:51:49


Трекер:  [ 14-Июл-2012 10:44 ]

  

Скачать .torrent

Размер .torrent файла 19 KB


Размер: 1.77 GB
Хэш (hash) релиза: bbfd5d9783148c26c6100939e16125573d12a674
Подписка на обновления:

Еще никто не оставлял запись к записи скачать торрент [SERIAL] Блудливая Калифорния Californication . Будь первым!

!Обратная связь