Скачать через торрент [SERIAL] Кости Bones Фильм бесплатно в хорошем качестве torrent

Скачивайте на UnionPeer.org фильмы через торрент без регистрации. Новинки кино в хорошем качестве через торрент. На UnionPeer.org можно скачать через торрент фильмы 2014 и 2015 годов. Самые новые фильмы.

Скачать торрент [SERIAL] Кости Bones бесплатно через .torrent фильм мультфильм сериал

Если у вас наблюдаются проблемы со скриншотами, переходом по ссылками, скачиванием торрентов - проблемы в блокировщике рекламы AdBlock. #хорошегоДня!


Статистика раздачи
Размер:  5.23 GB   |    Зарегистрирован:  5 лет 1 месяц   |    .torrent скачан:  71 раз   |   
Раздают:  1  
   
Загрузка...
 
Автор Сообщение

Galfimbul

avatar Galfimbul



Кости
Оригинальное название: Bones
Год выпуска: 2010-2011
Страна: США
Студия: ''20th Century Fox Television / Far Field Productions''
Номер сезона: 6 сезон (22 эпизода)
Статус сериала: идет показ (канал TNT)
Жанр: мелодрама, драма, криминал, детектив
Продолжительность: ~ 45 мин эпизод
Перевод : профессиональный дубляж (канал )
Режиссер: Аллан Крекер, Тони Уормби, Сэнфорд Букстэйвер, Грег Яйтанес
Автор идеи: Харт Хэнсон
Продюссер: Жан Девитт, Скотт Уильямс, Дэвид Бореаназ
В ролях: Эмили Дешанель, Дэвид Бориназ, Михаэла Конлин, Эрик Миллиган, Т.Дж. Тайн, Тамара Тэйлор, Джонатан Адамс и др.
Голоса дубляжа: Лариса Некипелова, Александр Быков, Людмила Гнилова, Борис Токарев, Прохор Чеховской, Игорь Тарадайкин, Наталья Гурзо
Описание:
Доктор Темперанс Бреннан - высококвалифицированный судебный антрополог, пишущая романы. Особая экспертиза Бреннан заключается в ее странной способности читать ключи, оставленные в костях жертвы. Бреннан часто оказывается в команде со специальным агентом Сили Бутом из отдела по расследованию убийств ФБР. Бывший армейский снайпер Бут не доверяет науке и верит, что ключ к расследованию преступлений лежит в получении правды от все еще живых свидетелей и подозреваемых через надежные старомодные следственные действия. Бреннан и Бут часто сталкиваются и профессионально и лично, но пока искра отношений между ними загорается только в последнем романе Бреннан...

Season 6, Episode 1: The Mastodon in the Room / Мастодонт в комнате
Season 6, Episode 2: The Couple in the Cave / Любовники в пещере
Season 6, Episode 3: The Maggots in the Meathead / Личинки в качке
Season 6, Episode 4: The Body and the Bounty / Труп и охотник за головами
Season 6, Episode 5: The Bones That Weren't / Кости, которых не было
Season 6, Episode 6: The Shallow in the Deep / Мелкое в глубоком
Season 6, Episode 7: The Babe in the Bar / Малышка в баре
Season 6, Episode 8: The Twisted Bones in the Melted Truck / Кости в расплавленном грузовике
Season 6, Episode 9: The Doctor in the Photo / Доктор на фотографии
Season 6, Episode 10: The Body in the Bag / Тело в душе
Season 6, Episode 11: The Bullet in the Brain / Пуля в мозгу
Season 6, Episode 12: The Sin in the Sisterhood / Грех в родстве
Season 6, Episode 13: The Daredevil in the Mold / Сорвиголова в форме
Season 6, Episode 14: The Bikini in the Soup / Бикини в супе
Season 6, Episode 15: The Killer in the Crosshairs / Убийца на перекрестке
Season 6, Episode 16: The Blackout in the Blizzard / Потемнение в метель
Season 6, Episode 17: The Feet on the Beach / Ступни на пляже
Season 6, Episode 18: The Truth in the Myth / Правда о мифе
Season 6, Episode 19: The Seeker / Искатель
Season 6, Episode 20: The Pinocchio in the Planter / Пиноккио в клумбе
Season 6, Episode 21: The Signs in the Silence / Звуки в тишине
Season 6, Episode 22: The Hole in the Heart / Дыра в сердце
Season 6, Episode 23: The Change in the Game / Изменение в игре
Тех. информация:
Источник: WEB-DL, HD, 720p
Качество: WEB-DLRip
Формат: MP4 PSP AVC
Кодек видео: H.264
Кодек аудио: AAC
Видео: 480x272 (16:9), 23.976 fps, AVC, H.264, ~ 608 kbps avg, 0.194 bit/pixel
Аудио: Russian 48 kHz, AAC-LC, 2/0 (L,R) ch, ABR, ~128 kbps

General
Complete name : J:\Ripped_PSP\Кости (Bones, 6 season)\bones.s06e01.webdl.rus.mp4
Format : MPEG-4
Format profile : Base Media
Codec ID : isom
File size : 239 MiB
Duration : 45mn 30s
Overall bit rate : 734 Kbps
Encoded date : UTC 2010-10-25 10:54:33
Tagged date : UTC 2010-10-25 10:54:33
Encoding by: Gambit

Video
ID : 1
Format : AVC
Format/Info : Advanced Video Codec
Format profile : <a href="mailto:Main@L3.0" class="postLink">Main@L3.0</a>
Format settings, CABAC : Yes
Format settings, ReFrames : 2 frames
Codec ID : avc1
Codec ID/Info : Advanced Video Coding
Duration : 45mn 30s
Bit rate mode : Variable
Bit rate : 608 Kbps
Maximum bit rate : 1 966 Kbps
Width : 480 pixels
Height : 272 pixels
Display aspect ratio : 16:9
Frame rate mode : Constant
Frame rate : 23.976 fps
Color space : YUV
Chroma subsampling : 4:2:0
Bit depth : 8 bits
Scan type : Progressive
Bits/(Pixel*Frame) : 0.194
Stream size : 196 MiB (82%)
Writing library : x264 core 86 r1442M 781d300
Encoding settings : cabac=1 / ref=2 / deblock=1:0:0 / analyse=0x1:0x131 / me=hex / subme=7 / psy=1 / psy_rd=1.00:0.00 / mixed_ref=1 / me_range=16 / chroma_me=1 / trellis=1 / 8x8dct=0 / cqm=0 / deadzone=21,11 / fast_pskip=1 / chroma_qp_offset=-2 / threads=2 / sliced_threads=0 / nr=0 / decimate=1 / interlaced=0 / constrained_intra=0 / bframes=3 / b_pyramid=0 / b_adapt=2 / b_bias=0 / direct=3 / wpredb=1 / wpredp=2 / keyint=230 / keyint_min=23 / scenecut=40 / intra_refresh=0 / rc_lookahead=40 / rc=cbr / mbtree=1 / bitrate=608 / ratetol=0.2 / qcomp=0.60 / qpmin=10 / qpmax=51 / qpstep=4 / vbv_maxrate=2000 / vbv_bufsize=2000 / ip_ratio=1.41 / aq=1:1.00 / pulldown=0 / nal_hrd=none
Language : English
Tagged date : UTC 2010-10-25 10:55:02

Audio
ID : 2
Format : AAC
Format/Info : Advanced Audio Codec
Format version : Version 4
Format profile : LC
Format settings, SBR : No
Codec ID : 40
Duration : 45mn 30s
Bit rate mode : Variable
Bit rate : 129 Kbps
Maximum bit rate : 155 Kbps
Channel(s) : 2 channels
Channel positions : Front: L R
Sampling rate : 48.0 KHz
Stream size : 42.0 MiB (18%)
Encoded date : UTC 2010-10-25 10:55:00
Tagged date : UTC 2010-10-25 10:55:02


Трекер:  [ 14-Июл-2012 10:44 ]

  

Скачать .torrent

Размер .torrent файла 15 KB


Размер: 5.23 GB
Хэш (hash) релиза: 6c812d7c0402139d42f8e712158c28336d30ff58
Подписка на обновления:

Еще никто не оставлял запись к записи скачать торрент [SERIAL] Кости Bones . Будь первым!

!Обратная связь