Скачать через торрент [SERIAL4PSP] Менталист The Mentalist Фильм бесплатно в хорошем качестве torrent

Скачивайте на UnionPeer.org фильмы через торрент без регистрации. Новинки кино в хорошем качестве через торрент. На UnionPeer.org можно скачать через торрент фильмы 2014 и 2015 годов. Самые новые фильмы.

Скачать торрент [SERIAL4PSP] Менталист The Mentalist бесплатно через .torrent фильм мультфильм сериал

Если у вас наблюдаются проблемы со скриншотами, переходом по ссылками, скачиванием торрентов - проблемы в блокировщике рекламы AdBlock. #хорошегоДня!


Статистика раздачи
Размер:  5.13 GB   |    Зарегистрирован:  5 лет 4 месяца   |    .torrent скачан:  107 раз   |   
Раздают:  1  
   
Загрузка...
 
Автор Сообщение

Galfimbul

avatar Galfimbul



Менталист
«He reads between the lies.»
Оригинальное название: The Mentalist
Год выпуска: 2008-2009
Страна: США
Студия: ''Warner Bros. Television / Primrose Hill Productions''
Номер сезона: 1 сезон (23 эпизода)
Статус сериала: съёмки продолжаются
Жанр: триллер, драма, криминал, детектив
Продолжительность: ~ 44 мин эпизод
Перевод : профессиональный дубляж (канал )
Режиссер: Крис Лонг, Дэвид Наттер, Адам Кэйн
Автор идеи: Бруно Хеллер, Джон Манкевич, Джордан Харпер
Продюссер: Эшли Гейбл, Джон Манкевич, Энди Бушнелл
В ролях: Саймон Бейкер, Робин Танни, Тим Кенг, Аманда Риджетти, Овайн Йомэн, Грегори Итцин
Голоса дубляжа: Сергей Набиев, Елена Чебатуркина, Никита Прозоровский, Евгений Вальц, Ольга Зверева
Описание:
Патрик Джейн — детектив и независимый консультант из Калифорнийского Бюро Расследований (КБР), он использует свои отточенные, как лезвие, навыки наблюдения для раскрытия тяжких преступлений. В самом Бюро Джейн известен за частые нарушения протокола, а также за его звездное прошлое: он работал медиумом, однако теперь сам признает, что симулировал паранормальные способности. Роль Джейна в раскрытии целой серии загадочных преступлений высоко ценится коллегами. Но суровый старший агент Тереза Лисбон против того, чтоб Джейн работал с ее отрядом, и то вынужденно признает его успехи, то критикует его за театральность, нарциссизм и отсутствие границ.

Season 1, Episode 1: Pilot / Пилотная серия
Season 1, Episode 2: Red Hair and Silver Tape / Рыжие волосы и серебристая лента
Season 1, Episode 3: Red Tide / Кровавый прилив
Season 1, Episode 4: Ladies in Red / Женщины в красном
Season 1, Episode 5: Redwood / Красное дерево
Season 1, Episode 6: Red Handed / Пойманный с поличным
Season 1, Episode 7: Seeing Red / В гневе
Season 1, Episode 8: The Thin Red Line / Тонкая красная линия
Season 1, Episode 9: Flame Red / Красное пламя
Season 1, Episode 10: Red Brick and Ivy / Красный кирпич и плющ
Season 1, Episode 11: Red John’s Friends / Друзья Красного Джона
Season 1, Episode 12: Red Rum / Красный ром
Season 1, Episode 13: Paint It Red / Картина в красных тонах
Season 1, Episode 14: Crimson Casanova / Кровавый Казанова
Season 1, Episode 15: Scarlett Fever / Алая лихорадка
Season 1, Episode 16: Bloodshot / Налитый кровью
Season 1, Episode 17: Carnelian, Inc. / Корпорация Карнелиан
Season 1, Episode 18: Russet Potatoes / Красный картофель
Season 1, Episode 19: A Dozen Red Roses / Дюжина алых роз
Season 1, Episode 20: Red Sauce / Красный соус
Season 1, Episode 21: Miss Red / Мисс Рэд
Season 1, Episode 22: Blood Brothers / Кровные братья
Season 1, Episode 23: Red John’s Footsteps / По следам Красного Джона
Тех. информация:
Источник: WEB-DL, HD, 720p
Качество: WEB-DLRip
Формат: MP4 PSP AVC
Кодек видео: H.264
Кодек аудио: AAC
Видео: 480x272 (16:9), 23.976 fps, AVC, H.264, ~ 608 kbps avg, 0.194 bit/pixel
Аудио: Russian 48 kHz, AAC-LC, 2/0 (L,R) ch, ABR, ~128 kbps

General
Complete name : J:\Ripped_PSP\Менталист (The Mentalis, 1 season)\the_mentalist.s01e01.webdl.rus.mp4
Format : MPEG-4
Format profile : Base Media
Codec ID : isom
File size : 236 MiB
Duration : 45mn 9s
Overall bit rate : 731 Kbps
Encoded date : UTC 2010-10-26 21:33:11
Tagged date : UTC 2010-10-26 21:33:11

Video
ID : 1
Format : AVC
Format/Info : Advanced Video Codec
Format profile : <a href="mailto:Main@L3.0" class="postLink">Main@L3.0</a>
Format settings, CABAC : Yes
Format settings, ReFrames : 2 frames
Codec ID : avc1
Codec ID/Info : Advanced Video Coding
Duration : 45mn 7s
Bit rate mode : Variable
Bit rate : 608 Kbps
Maximum bit rate : 1 955 Kbps
Width : 480 pixels
Height : 272 pixels
Display aspect ratio : 16:9
Frame rate mode : Constant
Frame rate : 23.976 fps
Color space : YUV
Chroma subsampling : 4:2:0
Bit depth : 8 bits
Scan type : Progressive
Bits/(Pixel*Frame) : 0.194
Stream size : 193 MiB (82%)
Writing library : x264 core 86 r1442M 781d300
Encoding settings : cabac=1 / ref=2 / deblock=1:0:0 / analyse=0x1:0x131 / me=hex / subme=7 / psy=1 / psy_rd=1.00:0.00 / mixed_ref=1 / me_range=16 / chroma_me=1 / trellis=1 / 8x8dct=0 / cqm=0 / deadzone=21,11 / fast_pskip=1 / chroma_qp_offset=-2 / threads=2 / sliced_threads=0 / nr=0 / decimate=1 / interlaced=0 / constrained_intra=0 / bframes=3 / b_pyramid=0 / b_adapt=2 / b_bias=0 / direct=3 / wpredb=1 / wpredp=2 / keyint=230 / keyint_min=23 / scenecut=40 / intra_refresh=0 / rc_lookahead=40 / rc=cbr / mbtree=1 / bitrate=608 / ratetol=0.2 / qcomp=0.60 / qpmin=10 / qpmax=51 / qpstep=4 / vbv_maxrate=2000 / vbv_bufsize=2000 / ip_ratio=1.41 / aq=1:1.00 / pulldown=0 / nal_hrd=none
Language : English
Tagged date : UTC 2010-10-26 21:33:30

Audio
ID : 2
Format : AAC
Format/Info : Advanced Audio Codec
Format version : Version 4
Format profile : LC
Format settings, SBR : No
Codec ID : 40
Duration : 45mn 9s
Bit rate mode : Variable
Bit rate : 129 Kbps
Maximum bit rate : 169 Kbps
Channel(s) : 2 channels
Channel positions : Front: L R
Sampling rate : 48.0 KHz
Stream size : 41.6 MiB (18%)
Encoded date : UTC 2010-10-26 21:33:29
Tagged date : UTC 2010-10-26 21:33:30


Трекер:  [ 14-Июл-2012 11:37 ]

  

Скачать .torrent

Размер .torrent файла 27 KB


Размер: 5.13 GB
Хэш (hash) релиза: 98f5a03a097e95d8a17bf594d03f1af7800ad196
Подписка на обновления:

Еще никто не оставлял запись к записи скачать торрент [SERIAL4PSP] Менталист The Mentalist . Будь первым!

!Обратная связь