Скачать через торрент [SERIAL] Менталист The Mentalist Фильм бесплатно в хорошем качестве torrent

Скачивайте на UnionPeer.org фильмы через торрент без регистрации. Новинки кино в хорошем качестве через торрент. На UnionPeer.org можно скачать через торрент фильмы 2014 и 2015 годов. Самые новые фильмы.

Скачать торрент [SERIAL] Менталист The Mentalist бесплатно через .torrent фильм мультфильм сериал

Если у вас наблюдаются проблемы со скриншотами, переходом по ссылками, скачиванием торрентов - проблемы в блокировщике рекламы AdBlock. #хорошегоДня!


Статистика раздачи
Размер:  5.1 GB   |    Зарегистрирован:  5 лет 4 месяца   |    .torrent скачан:  73 раза   |   
Раздают:  1  
   
Загрузка...
 
Автор Сообщение

Galfimbul

avatar Galfimbul



Менталист
«He reads between the lies.»
Оригинальное название: The Mentalist
Год выпуска: 2009-2010
Страна: США
Студия: ''Warner Bros. Television / Primrose Hill Productions''
Номер сезона: 2 сезон (23 эпизода)
Статус сериала: съёмки продолжаются
Жанр: триллер, драма, криминал, детектив
Продолжительность: ~ 44 мин эпизод
Перевод : профессиональный дубляж (канал )
Режиссер: Крис Лонг, Дэвид Наттер, Адам Кэйн
Автор идеи: Бруно Хеллер, Джон Манкевич, Джордан Харпер
Продюссер: Эшли Гейбл, Джон Манкевич, Энди Бушнелл
В ролях: Саймон Бейкер, Робин Танни, Тим Кенг, Аманда Риджетти, Овайн Йомэн, Грегори Итцин
Описание:
Патрик Джейн — детектив и независимый консультант из Калифорнийского Бюро Расследований (КБР), он использует свои отточенные, как лезвие, навыки наблюдения для раскрытия тяжких преступлений. В самом Бюро Джейн известен за частые нарушения протокола, а также за его звездное прошлое: он работал медиумом, однако теперь сам признает, что симулировал паранормальные способности. Роль Джейна в раскрытии целой серии загадочных преступлений высоко ценится коллегами. Но суровый старший агент Тереза Лисбон против того, чтоб Джейн работал с ее отрядом, и то вынужденно признает его успехи, то критикует его за театральность, нарциссизм и отсутствие границ.

Season 2, Episode 1: Redemption / Искупление
Season 2, Episode 2: The Scarlett Letter / Письмо Скарлетт
Season 2, Episode 3: Red Badge / Красный значок
Season 2, Episode 4: Red Menace / Красная угроза
Season 2, Episode 5: Red Scare / Красный ужас
Season 2, Episode 6: Black Gold and Red Blood / Черное золото и красная кровь
Season 2, Episode 7: Red Bulls / Красные быки
Season 2, Episode 8: His Red Right Hand / Его кровавая правая рука
Season 2, Episode 9: A Price Above Rubies / Цена дороже рубинов
Season 2, Episode 10: Throwing Fire / Метание огня
Season 2, Episode 11: Rose-Colored Glasses / Розовые очки
Season 2, Episode 12: Bleeding Heart / Сопереживающий
Season 2, Episode 13: Redline / Красная линия
Season 2, Episode 14: Blood In, Blood Out / Кровные узы
Season 2, Episode 15: Red Herring / Отвлекающий маневр
Season 2, Episode 16: Code Red / Красный код
Season 2, Episode 17: The Red Box / Красная коробка
Season 2, Episode 18: Aingavite Baa / Источник всех бед
Season 2, Episode 19: Blood Money / Кровавые деньги
Season 2, Episode 20: Red All Over / Красное повсюду
Season 2, Episode 21: 18-5-4 / 18-5-4
Season 2, Episode 22: Red letter / Красное письмо
Season 2, Episode 23: Red sky in the morning / Кровавый рассвет
Тех. информация:
Источник: WEB-DL, HD, 720p
Формат: MP4 PSP AVC
Кодек видео: H.264
Кодек аудио: AAC
Видео: 480x272 (16:9), 23.976 fps, AVC, H.264, ~ 608 kbps avg, 0.194 bit/pixel
Аудио: Russian 48 kHz, AAC-LC, 2/0 (L,R) ch, ABR, ~128 kbps

General
Complete name : E:\Ripped_PSP\Менталист (The Mentalist, 2 season)\the.mentalist.s02e01.webdl.rus.mp4
Format : MPEG-4
Format profile : Base Media
Codec ID : isom
File size : 229 MiB
Duration : 43mn 20s
Overall bit rate mode : Variable
Overall bit rate : 739 Kbps
Encoded date : UTC 2012-01-22 15:20:45
Tagged date : UTC 2012-01-22 15:20:45

Video
ID : 1
Format : AVC
Format/Info : Advanced Video Codec
Format profile : <a href="mailto:Main@L3.0" class="postLink">Main@L3.0</a>
Format settings, CABAC : Yes
Format settings, ReFrames : 3 frames
Codec ID : avc1
Codec ID/Info : Advanced Video Coding
Duration : 43mn 19s
Bit rate : 608 Kbps
Maximum bit rate : 3 254 Kbps
Width : 480 pixels
Height : 272 pixels
Display aspect ratio : 16:9
Frame rate mode : Constant
Frame rate : 23.976 fps
Color space : YUV
Chroma subsampling : 4:2:0
Bit depth : 8 bits
Scan type : Progressive
Bits/(Pixel*Frame) : 0.194
Stream size : 188 MiB (82%)
Writing library : x264 core 119 r2106 07efeb4
Encoding settings : cabac=1 / ref=3 / deblock=1:-2:0 / analyse=0x1:0x131 / me=umh / subme=10 / psy=1 / psy_rd=1.00:0.20 / mixed_ref=1 / me_range=16 / chroma_me=1 / trellis=2 / 8x8dct=0 / cqm=0 / deadzone=21,11 / fast_pskip=0 / chroma_qp_offset=-3 / threads=6 / sliced_threads=0 / nr=0 / decimate=0 / interlaced=0 / bluray_compat=0 / constrained_intra=0 / bframes=3 / b_pyramid=0 / b_adapt=2 / b_bias=0 / direct=3 / weightb=1 / open_gop=0 / weightp=2 / keyint=250 / keyint_min=23 / scenecut=40 / intra_refresh=0 / rc_lookahead=60 / rc=2pass / mbtree=1 / bitrate=608 / ratetol=1.0 / qcomp=0.60 / qpmin=0 / qpmax=69 / qpstep=4 / cplxblur=20.0 / qblur=0.5 / ip_ratio=1.40 / aq=1:1.00
Encoded date : UTC 2012-01-22 15:20:45
Tagged date : UTC 2012-01-22 15:20:53

Audio
ID : 2
Format : AAC
Format/Info : Advanced Audio Codec
Format profile : LC
Codec ID : 40
Duration : 43mn 20s
Bit rate mode : Variable
Bit rate : 128 Kbps
Maximum bit rate : 149 Kbps
Channel(s) : 2 channels
Channel positions : Front: L R
Sampling rate : 48.0 KHz
Compression mode : Lossy
Stream size : 39.6 MiB (17%)
Encoded date : UTC 2012-01-22 15:20:53
Tagged date : UTC 2012-01-22 15:20:53


Трекер:  [ 14-Июл-2012 11:40 ]

  

Скачать .torrent

Размер .torrent файла 14 KB


Размер: 5.1 GB
Хэш (hash) релиза: fda570ceb08bcffbe85b5099ff24fbeec7c26ebe
Подписка на обновления:

Торренты, похожие на [SERIAL] Менталист The Mentalist скачать торрент

Форум Название Автор Размер S L Добавлен
Видео для Консолей ·· [SERIAL] Менталист / The Mentalist (Крис Лонг, Дэвид Баррет, Дэвид Наттер) [3 сезон][24 эпизода из 24][2010-2011 гг., триллер, драма, криминал, детектив, HDTVRip][Gravi-TV] Galfimbul 56442027015.26 GB 0 0 1342251780

10:43

14-Июл-12

Еще никто не оставлял запись к записи скачать торрент [SERIAL] Менталист The Mentalist . Будь первым!

!Обратная связь