Скачать через торрент [Serial] Отчаянные домохозяйки Desperate Housewives Фильм бесплатно в хорошем качестве torrent

Скачивайте на UnionPeer.org фильмы через торрент без регистрации. Новинки кино в хорошем качестве через торрент. На UnionPeer.org можно скачать через торрент фильмы 2014 и 2015 годов. Самые новые фильмы.

Скачать торрент [Serial] Отчаянные домохозяйки Desperate Housewives бесплатно через .torrent фильм мультфильм сериал

Если у вас наблюдаются проблемы со скриншотами, переходом по ссылками, скачиванием торрентов - проблемы в блокировщике рекламы AdBlock. #хорошегоДня!


Статистика раздачи
Размер:  5.19 GB   |    Зарегистрирован:  5 лет 1 месяц   |    .torrent скачан:  88 раз   |   
Раздают:  1  
   
Загрузка...
 
Автор Сообщение

Galfimbul

avatar Galfimbul




Отчаянные домохозяйки
Оригинальное название: Desperate Housewives
Год выпуска: 2010
Страна: США
Жанр: Драма/Комедия
Сезон: 7
Продолжительность: 23 серии ~ 00:43
Перевод: Профессиональный (многоголосый, закадровый) [Lostfilm]
Режиссер: Марк Черри
В ролях: Тери Хэтчер, Фелисити Хаффман, Марсия Кросс, Ева Лонгория, Стивен Калп и др.
Описание: Самые роковые женщины Америки - героини американского комедийного сериала отложив фартуки и швабры, продолжают покорять сердца мужчин и зрителей всего мира!
Что нового в тихом квартале Вистерия лейн, где живут четыре главные героини сериала: Сьюзан, Бри, Габриель и Линнет?
Всё те же великолепные газоны, открыточные домики, счастливые семьи - характерные признаки одноэтажной Америки.
А за фасадом этого мнимого благополучия продолжается ожесточенная война за власть, солдаты в которой - мужья, любовники, соседи, дети и, конечно же, сами отчаянные домохозяйки.

Качество: WEB-DLRip
Формат: MP4
Видео кодек: H.264
Аудио кодек: AAC
Видео: 480x272 (16:9), 23.976 fps, H.264, ~ 608 kbps avg, 0.194 bit/pixel (2-pass Ultra)
Аудио: Russian 48 kHz, AAC-LC, 2/0 (L,R) ch, ~128 kbps
1. Помнишь Пола? (Remember Paul?)
2. Познакомьтесь с моей женой (You Must Meet My Wife)
3. Истинное счастье (Truly Content)
4. Важно то, что внутри (The Thing That Counts Is What's Inside)
5. Позволь мне развлечь тебя (Let Me Entertain You)
6. Взволнованные и напуганные (Excited and Scared)
7. Унизительная работа (A Humiliating Business)
8. Грустная благодарность (Sorry Grateful)
9. Маленькое уютное королевство (Pleasant Little Kingdom)
10.Уличные беспорядки (Down the Block There's a Riot)
11.Убийцы (Assassins)
12.Где мое место? (Where Do I Belong?)
13.Я все еще здесь (I'm Still Here)
14.Взгляд в прошлое (Flashback)
15.Прощальное письмо (Farewell Letter)
16.Поиск (Searching)
17.Все по-новому, ничего не меняется (Everything's Different, Nothing's Changed)
18.Случай в лесу (Moments in the Woods)
19.Плохо скрываемая ложь (The Lies Ill-Concealed)
20.Воскресная порция яда (I'll Swallow Poison on Sunday)
21.И тут мне стало очень страшно (Then I Really Got Scared)
22.В полной безопастности (And Lots of Security...)
23.Приходите на ужин (Come on Over for Dinner)
General
Complete name : D:\..........\Desperate Housewives - Season 7 (LostFilm)PSP\Desperate.Housewives.S07E01.rus.LostFilm.TV.mp4
Format : MPEG-4
Format profile : Base Media
Codec ID : isom
File size : 231 MiB
Duration : 43mn 40s
Overall bit rate : 740 Kbps
Encoded date : UTC 2011-07-03 14:06:28
Tagged date : UTC 2011-07-03 14:06:28

Video
ID : 1
Format : AVC
Format/Info : Advanced Video Codec
Format profile : <a href="mailto:Main@L3.0" class="postLink">Main@L3.0</a>
Format settings, CABAC : Yes
Format settings, ReFrames : 3 frames
Format settings, GOP : N=1
Codec ID : avc1
Codec ID/Info : Advanced Video Coding
Duration : 43mn 40s
Bit rate mode : Variable
Bit rate : 608 Kbps
Maximum bit rate : 1 811 Kbps
Width : 480 pixels
Height : 272 pixels
Display aspect ratio : 16:9
Frame rate mode : Constant
Frame rate : 23.976 fps
Color space : YUV
Chroma subsampling : 4:2:0
Bit depth : 8 bits
Scan type : Progressive
Bits/(Pixel*Frame) : 0.194
Stream size : 190 MiB (82%)
Writing library : x264 core 56 svn-667M
Encoding settings : cabac=1 / ref=2 / deblock=1:0:0 / analyse=0x1:0x131 / me=umh / subme=6 / brdo=1 / mixed_ref=1 / me_range=16 / chroma_me=1 / trellis=1 / 8x8dct=0 / cqm=0 / deadzone=21,11 / chroma_qp_offset=0 / threads=2 / nr=0 / decimate=1 / mbaff=0 / bframes=3 / b_pyramid=0 / b_adapt=1 / b_bias=0 / direct=3 / wpredb=1 / bime=1 / keyint=250 / keyint_min=25 / scenecut=40(pre) / rc=2pass / bitrate=608 / ratetol=1.0 / rceq='blurCplx^(1-qComp)' / qcomp=0.60 / qpmin=10 / qpmax=51 / qpstep=4 / cplxblur=20.0 / qblur=0.5 / ip_ratio=1.40 / pb_ratio=1.30
Encoded date : UTC 2011-07-03 14:06:28
Tagged date : UTC 2011-07-03 14:06:37

Audio
ID : 2
Format : AAC
Format/Info : Advanced Audio Codec
Format profile : LC
Codec ID : 40
Duration : 43mn 40s
Bit rate mode : Variable
Bit rate : 129 Kbps
Maximum bit rate : 147 Kbps
Channel(s) : 2 channels
Channel positions : Front: L R
Sampling rate : 48.0 KHz
Compression mode : Lossy
Stream size : 40.3 MiB (17%)
Encoded date : UTC 2011-07-03 14:06:35
Tagged date : UTC 2011-07-03 14:06:37


Трекер:  [ 14-Июл-2012 11:40 ]

  

Скачать .torrent

Размер .torrent файла 30 KB


Размер: 5.19 GB
Хэш (hash) релиза: d10f104cb1dfad6abfe5f6fa7e6754f1808f8c37
Подписка на обновления:

Еще никто не оставлял запись к записи скачать торрент [Serial] Отчаянные домохозяйки Desperate Housewives . Будь первым!

!Обратная связь