Скачать через торрент музыку The Folklords - Release The Sunshine бесплатно без регистрации torrent

Если у вас наблюдаются проблемы со скриншотами, переходом по ссылками, скачиванием торрентов - проблемы в блокировщике рекламы AdBlock. #хорошегоДня!


Статистика раздачи
Размер:  287 MB   |    Зарегистрирован:  5 лет 3 месяца   |    .torrent скачан:  14 раз   |   
Раздают:  1  
   
Загрузка...
 
Автор Сообщение

Galfimbul

avatar Galfimbul


The Folklords / Release The Sunshine (1968)

Жанр: Psychedelic Folk, Psychedelic Rock
Страна-производитель диска: Canada
Год издания: 2008
Издатель (лейбл): Pacemaker
Номер по каталогу: PACE-047-LN
Страна: Canada
Аудиокодек: FLAC (*.flac)
Тип рипа: tracks+.cue
Битрейт аудио: lossless
Продолжительность: 45:58
Источник (релизер): dickthespic
Наличие сканов в содержимом раздачи: нет
Треклист:
01. Jennifer Lee (3:30)
02. Don't Hide Your Love From Me (3:03)
03. Child (3:50)
04. Unspoken Love (2:15)
05. Windows (4:28)
06. Forty Second River (3:27)
07. Pardon Me Judas (3:17)
08. Thank You For Your Kindness (3:11)
09. We'll Love Like Before (2:23)
10. Suzanne Marie (4:07)
11. Don't Look Back (3:00)
12. The Slave (3:12)
13. Forty Second River (3:15)
14. Unspoken Love (3:01)
  
Exact Audio Copy V1.0 beta 1 from 15. November 2010

EAC extraction logfile from 22. February 2012, 7:34

The Folklords / Release The Sunshine

Used drive : HP DVD Writer 1260t Adapter: 0 ID: 1

Read mode : SecureUtilize accurate stream : YesDefeat audio cache : YesMake use of C2 pointers : No

Read offset correction : 6Overread into Lead-In and Lead-Out : NoFill up missing offset samples with silence : YesDelete leading and trailing silent blocks : NoNull samples used in CRC calculations : YesUsed interface : Native Win32 interface for Win NT & 2000Gap handling : Appended to previous track

Used output format : User Defined EncoderSelected bitrate : 768 kBit/sQuality : HighAdd ID3 tag : NoCommand line compressor : F:\Exact Audio Copy\FLAC\flac.exeAdditional command line options : -V -8 -T "artist=%a" -T "title=%t" -T "album=%g" -T "date=%y" -T "tracknumber=%n" -T "genre=%m" %s

TOC of the extracted CD

Track | Start | Length | Start sector | End sector --------------------------------------------------------- 1 | 0:00.00 | 3:30.20 | 0 | 15769 2 | 3:30.20 | 3:03.30 | 15770 | 29524 3 | 6:33.50 | 3:49.56 | 29525 | 46755 4 | 10:23.31 | 2:14.41 | 46756 | 56846 5 | 12:37.72 | 4:27.41 | 56847 | 76912 6 | 17:05.38 | 3:26.40 | 76913 | 92402 7 | 20:32.03 | 3:17.25 | 92403 | 107202 8 | 23:49.28 | 3:11.11 | 107203 | 121538 9 | 27:00.39 | 2:23.17 | 121539 | 132280 10 | 29:23.56 | 4:07.33 | 132281 | 150838 11 | 33:31.14 | 3:00.01 | 150839 | 164339 12 | 36:31.15 | 3:11.67 | 164340 | 178731 13 | 39:43.07 | 3:14.45 | 178732 | 193326 14 | 42:57.52 | 3:00.44 | 193327 | 206870

Track 1

Filename G:\demonoid\The Folklords - 1968 - Release The Sunshine\01 - Jennifer Lee .wav

Pre-gap length 0:00:02.00

Peak level 56.8 % Extraction speed 1.7 X Track quality 100.0 % Test CRC 61E1C45B Copy CRC 61E1C45B Accurately ripped (confidence 1) [A21D6CF8] Copy OK

Track 2

Filename G:\demonoid\The Folklords - 1968 - Release The Sunshine\02 - Don't Hide Your Love From Me .wav

Pre-gap length 0:00:01.90

Peak level 75.3 % Extraction speed 1.9 X Track quality 100.0 % Test CRC 5441E9E9 Copy CRC 5441E9E9 Accurately ripped (confidence 1) [AC5AE388] Copy OK

Track 3

Filename G:\demonoid\The Folklords - 1968 - Release The Sunshine\03 - Child .wav

Pre-gap length 0:00:01.96

Peak level 92.1 % Extraction speed 2.1 X Track quality 100.0 % Test CRC E727DD16 Copy CRC E727DD16 Accurately ripped (confidence 1) [64A04B47] Copy OK

Track 4

Filename G:\demonoid\The Folklords - 1968 - Release The Sunshine\04 - Unspoken Love .wav

Pre-gap length 0:00:01.73

Peak level 74.6 % Extraction speed 2.0 X Track quality 100.0 % Test CRC 63D17791 Copy CRC 63D17791 Accurately ripped (confidence 1) [1CD9AAD9] Copy OK

Track 5

Filename G:\demonoid\The Folklords - 1968 - Release The Sunshine\05 - Windows .wav

Pre-gap length 0:00:01.82

Peak level 93.3 % Extraction speed 2.4 X Track quality 100.0 % Test CRC 05607EE0 Copy CRC 05607EE0 Accurately ripped (confidence 1) [2AB0E389] Copy OK

Track 6

Filename G:\demonoid\The Folklords - 1968 - Release The Sunshine\06 - Forty Second River .wav

Pre-gap length 0:00:01.97

Peak level 71.2 % Extraction speed 2.1 X Track quality 99.9 % Test CRC 7D47D2E6 Copy CRC 7D47D2E6 Accurately ripped (confidence 1) [FF5C856F] Copy OK

Track 7

Filename G:\demonoid\The Folklords - 1968 - Release The Sunshine\07 - Pardon Me Judas .wav

Pre-gap length 0:00:01.97

Peak level 78.9 % Extraction speed 2.5 X Track quality 100.0 % Test CRC E6099A3A Copy CRC E6099A3A Accurately ripped (confidence 1) [E48BAC9C] Copy OK

Track 8

Filename G:\demonoid\The Folklords - 1968 - Release The Sunshine\08 - Thank You For Your Kindness .wav

Pre-gap length 0:00:01.98

Peak level 88.7 % Extraction speed 2.6 X Track quality 100.0 % Test CRC 033BFA64 Copy CRC 033BFA64 Accurately ripped (confidence 1) [D78F782C] Copy OK

Track 9

Filename G:\demonoid\The Folklords - 1968 - Release The Sunshine\09 - We'll Love Like Before .wav

Pre-gap length 0:00:01.94

Peak level 98.1 % Extraction speed 2.6 X Track quality 100.0 % Test CRC 1C0DCF94 Copy CRC 1C0DCF94 Accurately ripped (confidence 1) [D2617CB7] Copy OK

Track 10

Filename G:\demonoid\The Folklords - 1968 - Release The Sunshine\10 - Suzanne Marie .wav

Pre-gap length 0:00:01.88

Peak level 74.2 % Extraction speed 2.9 X Track quality 100.0 % Test CRC 8E5C0F32 Copy CRC 8E5C0F32 Accurately ripped (confidence 1) [41FD6075] Copy OK

Track 11

Filename G:\demonoid\The Folklords - 1968 - Release The Sunshine\11 - Don't Look Back .wav

Pre-gap length 0:00:01.89

Peak level 64.4 % Extraction speed 2.9 X Track quality 100.0 % Test CRC D1408ED8 Copy CRC D1408ED8 Accurately ripped (confidence 1) [831FD16C] Copy OK

Track 12

Filename G:\demonoid\The Folklords - 1968 - Release The Sunshine\12 - The Slave .wav

Pre-gap length 0:00:01.88

Peak level 67.2 % Extraction speed 3.0 X Track quality 100.0 % Test CRC AB593148 Copy CRC AB593148 Accurately ripped (confidence 1) [439D0D6C] Copy OK

Track 13

Filename G:\demonoid\The Folklords - 1968 - Release The Sunshine\13 - Forty Second River .wav

Pre-gap length 0:00:03.78

Peak level 85.6 % Extraction speed 2.7 X Track quality 99.9 % Test CRC 7277E500 Copy CRC 7277E500 Accurately ripped (confidence 1) [8F265E68] Copy OK

Track 14

Filename G:\demonoid\The Folklords - 1968 - Release The Sunshine\14 - Unspoken Love .wav

Pre-gap length 0:00:01.81

Peak level 64.8 % Extraction speed 3.1 X Track quality 100.0 % Test CRC F53008C1 Copy CRC F53008C1 Accurately ripped (confidence 1) [5915FF80] Copy OK

All tracks accurately ripped

No errors occurred

End of status report

==== Log checksum BF4828307D1A6D620DC7F4E5D530307C5D6ED17AD202AD950845BA54BA6F7898 ====
  
REM GENRE RockREM DATE 1968REM DISCID B30AC60EREM COMMENT "ExactAudioCopy v1.0b1"PERFORMER "The Folklords"TITLE "Release The Sunshine "FILE "The Folklords - 1968 - Release The Sunshine\01 - Jennifer Lee .wav" WAVE TRACK 01 AUDIO TITLE "Jennifer Lee" PERFORMER "The Folklords" INDEX 01 00:00:00 TRACK 02 AUDIO TITLE "Don't Hide Your Love From Me" PERFORMER "The Folklords" INDEX 00 03:28:27FILE "The Folklords - 1968 - Release The Sunshine\02 - Don't Hide Your Love From Me .wav" WAVE INDEX 01 00:00:00 TRACK 03 AUDIO TITLE "Child" PERFORMER "The Folklords" INDEX 00 03:01:33FILE "The Folklords - 1968 - Release The Sunshine\03 - Child .wav" WAVE INDEX 01 00:00:00 TRACK 04 AUDIO TITLE "Unspoken Love" PERFORMER "The Folklords" INDEX 00 03:48:01FILE "The Folklords - 1968 - Release The Sunshine\04 - Unspoken Love .wav" WAVE INDEX 01 00:00:00 TRACK 05 AUDIO TITLE "Windows" PERFORMER "The Folklords" INDEX 00 02:12:54FILE "The Folklords - 1968 - Release The Sunshine\05 - Windows .wav" WAVE INDEX 01 00:00:00 TRACK 06 AUDIO TITLE "Forty Second River" PERFORMER "The Folklords" INDEX 00 04:25:43FILE "The Folklords - 1968 - Release The Sunshine\06 - Forty Second River .wav" WAVE INDEX 01 00:00:00 TRACK 07 AUDIO TITLE "Pardon Me Judas" PERFORMER "The Folklords" INDEX 00 03:24:42FILE "The Folklords - 1968 - Release The Sunshine\07 - Pardon Me Judas .wav" WAVE INDEX 01 00:00:00 TRACK 08 AUDIO TITLE "Thank You For Your Kindness" PERFORMER "The Folklords" INDEX 00 03:15:26FILE "The Folklords - 1968 - Release The Sunshine\08 - Thank You For Your Kindness .wav" WAVE INDEX 01 00:00:00 TRACK 09 AUDIO TITLE "We'll Love Like Before" PERFORMER "The Folklords" INDEX 00 03:09:15FILE "The Folklords - 1968 - Release The Sunshine\09 - We'll Love Like Before .wav" WAVE INDEX 01 00:00:00 TRACK 10 AUDIO TITLE "Suzanne Marie" PERFORMER "The Folklords" INDEX 00 02:21:26FILE "The Folklords - 1968 - Release The Sunshine\10 - Suzanne Marie .wav" WAVE INDEX 01 00:00:00 TRACK 11 AUDIO TITLE "Don't Look Back" PERFORMER "The Folklords" INDEX 00 04:05:41FILE "The Folklords - 1968 - Release The Sunshine\11 - Don't Look Back .wav" WAVE INDEX 01 00:00:00 TRACK 12 AUDIO TITLE "The Slave" PERFORMER "The Folklords" INDEX 00 02:58:10FILE "The Folklords - 1968 - Release The Sunshine\12 - The Slave .wav" WAVE INDEX 01 00:00:00 TRACK 13 AUDIO TITLE "Forty Second River" PERFORMER "The Folklords" INDEX 00 03:08:08FILE "The Folklords - 1968 - Release The Sunshine\13 - Forty Second River .wav" WAVE INDEX 01 00:00:00 TRACK 14 AUDIO TITLE "Unspoken Love" PERFORMER "The Folklords" INDEX 00 03:12:59FILE "The Folklords - 1968 - Release The Sunshine\14 - Unspoken Love .wav" WAVE INDEX 01 00:00:00
Fourteen perfect examples of dreamy, sunshine-infused Pop Psychedelia with a folk bent, originally released by independent Canadian label Allied Records in 1968. When we first issued this terrific album on CD many years ago, our booklet featured the few scraps of information on the band we could find. We challenged anyone out there to find some information on this elusive and intriguing band. Well, were pleased to say that someone took us up on that offer, and that someone was band leader Tom Waschkowski (credited on the album as Tom Martin). He graciously offered us a band history, lyrics, some terrific photos, and best of all, a rare pre-album single that the trio had self-released. This allows us to offer up as perfect a reissue of this album as humanly possible. The Folklords Release the Sunshine is a captivating album, a notion shared by the many collectors worldwide who fight for original copies, which are few and far between. Strange thing is, if someone were to say to us that the Folklords album was released by Creation Records in 1987, it would be difficult to argue. Why?, you well may ask. Our answer: the chiming guitars, the rattle of tambourine, the dreaminess, and the meandering harmony vocals of Martha Johnson place the Folklords closer to Biff Bang Pow, the Jesus and Mary Chain, the Revolving Paint Dream, or even My Bloody Valentines debut Ecstasy and Wine (granted, at a much slower speed, and without the rampant fuzz guitar). Glorious remastered sound, as the twelve LP tracks were taken directly from the master tapes; the two bonus tracks come from the rare, privately issued non-LP single, which features haunting, drum-less versions of "Forty Second River" and "Unspoken Love", both of which were re-recorded for the original Allied album. A 16-page booklet includes a band history, lyrics and comments on the songs by Tom Martin.

OR

This one was scraped right off the bottom of the sixties dustbin. The Folklords are a sort of tripped-out We Five who recorded this lone LP for the Allied label, home to the likes of the Plastic Cloud, Reign Ghost and the Nihilist Spasm Band. They actually got their start with an insanely obscure seven-inch for the COB label ('Forty Second River' b/w 'Unspoken Love') in 1966 or '67, with both songs finding their way rerecorded onto this disc. The vaguely psychedelic Release the Sunshine came out a year or so later, but curiously slipped under the radar at the time, garnering absolutely no print at all in any of the Canadian music publications of the day. And supposedly, drummer Craig Boswell, the teenage son of Allied owner Jack Boswell, was a last-minute stand-in after the band's original drummer went mysteriously AWOL from these recording sessions, thus forever forfeiting his own brief fifteen minutes of fame.

Release the Sunshine is steeped - or mired, take your pick - in the sober, overly earnest folk traditions of the early sixties, but this collection of dreamy folk untethers itself somewhat with sweet harmonies that recall the very early, pre-Grace Slick Jefferson Airplane. Singer Martha Johnson's haunting vocals and a delicately played autoharp touch things up a bit. Collectors have parted with upwards of 300 dollars for those few surviving originals of Release the Sunshine, so Pacemaker's CD reissue, meticulously remastered from the original tapes, must certainly be a welcome treat.

An interesting, if unessential, document from the nether reaches of the folk realm.


Трекер:  [ 11-Июл-2012 16:23 ]

  

Скачать .torrent

Размер .torrent файла 13 KB


Размер: 287 MB
Хэш (hash) релиза: 0ff17b2590ab3388496911d0a6acfe05edcc6765

Еще никто не оставлял запись к записи скачать торрент The Folklords - Release The Sunshine . Будь первым!

!Обратная связь