Скачать через торрент музыку U2 1981-October бесплатно без регистрации torrent

Если у вас наблюдаются проблемы со скриншотами, переходом по ссылками, скачиванием торрентов - проблемы в блокировщике рекламы AdBlock. #хорошегоДня!


Статистика раздачи
Размер:  292 MB   |    Зарегистрирован:  5 лет 1 месяц   |    .torrent скачан:  11 раз   |   
Раздают:  1  
   
Загрузка...
 
Автор Сообщение

Galfimbul

avatar Galfimbul


1981-October
[1990, Island 422-842 297-2, USA]

Жанр: Rock
Страна исполнителя: Ireland
Страна-производитель диска: USA
Год издания диска: 1981 / 1990
Издатель (лейбл): Island Records
Номер по каталогу: 422-842 297-2
Аудио кодек: FLAC (*.flac)
Тип рипа: image+.cue
Битрейт аудио: lossless
Продолжительность: 41:08
Источник (релизер): edenika (NetLab)
Наличие сканов в содержимом раздачи:
01. Gloria (4:12)
02. I Fall Down (3:40)
03. I Threw a Brick Through a Window (4:54)
04. Rejoice (3:38)
05. Fire (3:51)
06. Tomorrow (4:39)
07. October (2:21)
08. With a Shout (4:03)
09. Stranger in a Strange Land (3:56)
10. Scarlet (2:54)
11. Is That All? (3:00)
  
Exact Audio Copy V1.0 beta 3 from 29. August 2011

EAC extraction logfile from 7. July 2012, 3:30

U2 / October

Used drive : HL-DT-STDVDRAM GH22NS50 Adapter: 1 ID: 1

Read mode : SecureUtilize accurate stream : YesDefeat audio cache : YesMake use of C2 pointers : No

Read offset correction : 667Overread into Lead-In and Lead-Out : NoFill up missing offset samples with silence : YesDelete leading and trailing silent blocks : NoNull samples used in CRC calculations : YesUsed interface : Native Win32 interface for Win NT & 2000

Used output format : Internal WAV RoutinesSample format : 44.100 Hz; 16 Bit; Stereo

TOC of the extracted CD

Track | Start | Length | Start sector | End sector --------------------------------------------------------- 1 | 0:00.32 | 4:12.25 | 32 | 18956 2 | 4:12.57 | 3:39.43 | 18957 | 35424 3 | 7:52.25 | 4:54.35 | 35425 | 57509 4 | 12:46.60 | 3:38.10 | 57510 | 73869 5 | 16:24.70 | 3:51.00 | 73870 | 91194 6 | 20:15.70 | 4:39.30 | 91195 | 112149 7 | 24:55.25 | 2:20.57 | 112150 | 122706 8 | 27:16.07 | 4:02.45 | 122707 | 140901 9 | 31:18.52 | 3:56.05 | 140902 | 158606 10 | 35:14.57 | 2:54.00 | 158607 | 171656 11 | 38:08.57 | 3:00.23 | 171657 | 185179

Range status and errors

Selected range

Filename C:\Music CD\U2 - October.wav

Peak level 88.1 % Extraction speed 1.6 X Range quality 100.0 % Test CRC B2B51FF9 Copy CRC B2B51FF9 Copy OK

No errors occurred

AccurateRip summary

Track 1 accurately ripped (confidence 9) [7171B06B] (AR v2)Track 2 accurately ripped (confidence 9) [E826444A] (AR v2)Track 3 accurately ripped (confidence 9) [FAD30A98] (AR v2)Track 4 accurately ripped (confidence 9) [325970B5] (AR v2)Track 5 accurately ripped (confidence 9) [E1DAFEA2] (AR v2)Track 6 accurately ripped (confidence 9) [8EF480DB] (AR v2)Track 7 accurately ripped (confidence 9) [727DAA24] (AR v2)Track 8 accurately ripped (confidence 9) [F6AE607E] (AR v2)Track 9 accurately ripped (confidence 9) [85E54DBC] (AR v2)Track 10 accurately ripped (confidence 9) [60D969DF] (AR v2)Track 11 accurately ripped (confidence 9) [4AB6FCE0] (AR v2)

All tracks accurately ripped

End of status report

==== Log checksum 3864F4A54F5604F583496652FF03B63E808C2CC1690DE06CABB38AE03B723D03 ====
  
REM GENRE "Rock"REM DATE 1981REM DISCID A209A50BREM COMMENT "ExactAudioCopy v1.0b3"REM ACCURATERIPID 0011d340-0098ecae-a209a50bCATALOG 042284229722REM DISCNUMBER 1REM TOTALDISCS 1PERFORMER "U2"TITLE "October"FILE "U2 - October.flac" WAVE TRACK 01 AUDIO TITLE "Gloria" PERFORMER "U2" INDEX 00 00:00:00 INDEX 01 00:00:32 TRACK 02 AUDIO TITLE "I Fall Down" PERFORMER "U2" INDEX 01 04:12:57 TRACK 03 AUDIO TITLE "I Threw a Brick Through a Window" PERFORMER "U2" INDEX 00 07:52:00 INDEX 01 07:52:25 TRACK 04 AUDIO TITLE "Rejoice" PERFORMER "U2" INDEX 00 12:45:67 INDEX 01 12:46:60 TRACK 05 AUDIO TITLE "Fire" PERFORMER "U2" INDEX 00 16:23:12 INDEX 01 16:24:70 TRACK 06 AUDIO TITLE "Tomorrow" PERFORMER "U2" INDEX 00 20:14:25 INDEX 01 20:15:70 TRACK 07 AUDIO TITLE "October" PERFORMER "U2" INDEX 00 24:52:45 INDEX 01 24:55:25 TRACK 08 AUDIO TITLE "With a Shout" PERFORMER "U2" INDEX 00 27:15:67 INDEX 01 27:16:07 TRACK 09 AUDIO TITLE "Stranger in a Strange Land" PERFORMER "U2" INDEX 00 31:18:45 INDEX 01 31:18:52 TRACK 10 AUDIO TITLE "Scarlet" PERFORMER "U2" INDEX 01 35:14:57 TRACK 11 AUDIO TITLE "Is That All?" PERFORMER "U2" INDEX 00 38:08:05 INDEX 01 38:08:57
  
[CUETools log; Date: 09.07.2012 10:05:18; Version: 2.1.4]Pregap length 00:00:32.[CTDB TOCID: r3wqZJlZn4EStTopYv1Eq.jcQro-] found.Track | CTDB Status 1 | (1/1) Accurately ripped 2 | (1/1) Accurately ripped 3 | (1/1) Accurately ripped 4 | (1/1) Differs in 48 samples @01:59:70,02:00:22,02:00:48 5 | (1/1) Accurately ripped 6 | (1/1) Accurately ripped 7 | (1/1) Accurately ripped 8 | (1/1) Accurately ripped 9 | (1/1) Accurately ripped 10 | (1/1) Accurately ripped 11 | (1/1) Accurately ripped[AccurateRip ID: 0011d340-0098ecae-a209a50b] found.Track [ CRC | V2 ] Status 01 [2410cd38|7171b06b] (054+009/221) Accurately ripped 02 [ddaf5b47|e826444a] (057+009/228) Accurately ripped 03 [984cba70|fad30a98] (056+009/225) Accurately ripped 04 [3717e1e5|325970b5] (056+009/228) Accurately ripped 05 [0fde4915|e1dafea2] (055+009/229) Accurately ripped 06 [2aeedfbd|8ef480db] (054+009/229) Accurately ripped 07 [870e4cb8|727daa24] (055+009/229) Accurately ripped 08 [177fbfa6|f6ae607e] (056+009/226) Accurately ripped 09 [3f3edb3e|85e54dbc] (054+009/226) Accurately ripped 10 [44a6cdf3|60d969df] (054+009/227) Accurately ripped 11 [fd24337f|4ab6fce0] (053+009/223) Accurately rippedOffsetted by -1093: 01 [3be6c84b] (002/221) Accurately ripped 02 [dd28900c] (002/228) Accurately ripped 03 [caafb9bd] (002/225) Accurately ripped 04 [4dbc9841] (002/228) Accurately ripped 05 [732d5a16] (002/229) Accurately ripped 06 [80c4afd7] (002/229) Accurately ripped 07 [2c317cda] (002/229) Accurately ripped 08 [7102bf8d] (002/226) Accurately ripped 09 [e04e95c9] (002/226) Accurately ripped 10 [5adf028c] (002/227) Accurately ripped 11 [135eb5f9] (002/223) Accurately rippedOffsetted by 18: 01 [806c6e94] (043/221) Accurately ripped 02 [290e024b] (044/228) Accurately ripped 03 [8cee1d0e] (044/225) Accurately ripped 04 [93f065cd] (043/228) Accurately ripped 05 [51ebf92b] (044/229) Accurately ripped 06 [fd04a5f9] (045/229) Accurately ripped 07 [eccc23a4] (044/229) Accurately ripped 08 [dd941380] (044/226) Accurately ripped 09 [dc546130] (045/226) Accurately ripped 10 [568dfd19] (044/227) Accurately ripped 11 [461b2a86] (046/223) Accurately rippedOffsetted by 46: 01 [ab29efa4] (002/221) Accurately ripped 02 [0e5b05f7] (002/228) Accurately ripped 03 [7b3e7d92] (002/225) Accurately ripped 04 [5d4132fd] (002/228) Accurately ripped 05 [d51db5bf] (002/229) Accurately ripped 06 [99268501] (002/229) Accurately ripped 07 [1948c74c] (002/229) Accurately ripped 08 [bc5e5d0c] (002/226) Accurately ripped 09 [97cb318c] (002/226) Accurately ripped 10 [1d120d8d] (002/227) Accurately ripped 11 [3194bc6c] (002/223) Accurately rippedOffsetted by 499: 01 [4d976ed1] (026/221) Accurately ripped 02 [07ce3956] (026/228) Accurately ripped 03 [dd1c04c5] (026/225) Accurately ripped 04 [288a2aa1] (026/228) Accurately ripped 05 [28cb853e] (027/229) Accurately ripped 06 [c04a81e7] (027/229) Accurately ripped 07 [c472682a] (025/229) Accurately ripped 08 [355df0a5] (024/226) Accurately ripped 09 [5e68dc81] (024/226) Accurately ripped 10 [dfa18574] (026/227) Accurately ripped 11 [f2d3deae] (024/223) Accurately rippedOffsetted by 508: 01 [cba89256] (012/221) Accurately ripped 02 [23c17441] (015/228) Accurately ripped 03 [576cb614] (014/225) Accurately ripped 04 [56f66c95] (015/228) Accurately ripped 05 [c9d25d49] (016/229) Accurately ripped 06 [a9556505] (016/229) Accurately ripped 07 [f75153a0] (016/229) Accurately ripped 08 [98681a92] (015/226) Accurately ripped 09 [acf39f7a] (016/226) Accurately ripped 10 [e8951d07] (016/227) Accurately ripped 11 [26761b0e] (013/223) Accurately rippedOffsetted by 1859: 01 [182c8c36] (033/221) Accurately ripped 02 [8dd41659] (033/228) Accurately ripped 03 [8212e6f5] (033/225) Accurately ripped 04 [c87118e1] (034/228) Accurately ripped 05 [c3f2282e] (034/229) Accurately ripped 06 [16b7ae47] (034/229) Accurately ripped 07 [59cf2c0a] (034/229) Accurately ripped 08 [56087735] (034/226) Accurately ripped 09 [821864d1] (034/226) Accurately ripped 10 [d2f936e4] (034/227) Accurately ripped 11 [4802d07a] (034/223) Accurately rippedOffsetted by 1927: 01 [636886d6] (017/221) Accurately ripped 02 [f2a140a5] (017/228) Accurately ripped 03 [571f3f11] (017/225) Accurately ripped 04 [43a30b31] (017/228) Accurately ripped 05 [4bb416ba] (017/229) Accurately ripped 06 [db09f07f] (017/229) Accurately ripped 07 [a14702a2] (018/229) Accurately ripped 08 [97aa9789] (017/226) Accurately ripped 09 [b7145ed5] (016/226) Accurately ripped 10 [6bf0cc90] (017/227) Accurately ripped 11 [88b7b968] (017/223) Accurately rippedOffsetted by 2235: 01 [eb6c75aa] (009/221) Accurately ripped 02 [6a22da5d] (008/228) Accurately ripped 03 [949364bd] (009/225) Accurately ripped 04 [ea1bdc41] (009/228) Accurately ripped 05 [eed73116] (009/229) Accurately ripped 06 [907e85d7] (008/229) Accurately ripped 07 [8aa20ada] (009/229) Accurately ripped 08 [2a5bc08d] (009/226) Accurately ripped 09 [c52f52c9] (009/226) Accurately ripped 10 [f39d818c] (009/227) Accurately ripped 11 [3d9bb84d] (008/223) Accurately rippedOffsetted by -6: 01 [c5e2eaad] (002/221) Accurately ripped 02 [19f4237e] (002/228) Accurately ripped 03 [9c16eee6] (000/225) No match (V2 was not tested) 04 [c2cfb5ed] (002/228) Accurately ripped 05 [4f2f0e63] (002/229) Accurately ripped 06 [e4e79da9] (002/229) Accurately ripped 07 [0fcf0514] (002/229) Accurately ripped 08 [d578f908] (002/226) Accurately ripped 09 [6037ae98] (002/226) Accurately ripped 10 [3eaf1391] (002/227) Accurately ripped 11 [2e0b3694] (002/223) Accurately ripped

Track Peak [ CRC32 ] [W/O NULL] [ LOG ] -- 88,1 [B2B51FF9] [A674B54D] CRC32 01 88,0 [447B8BDA] [FA0B9ADE] 02 82,4 [FBE19A93] [74D0CC86] 03 76,5 [8138850E] [41CEFCDB] 04 88,1 [5C33489A] [4AEE3EB7] 05 84,8 [0DE83CE4] [C9297BA3] 06 87,0 [F34B68B5] [EB7BBE1A] 07 59,5 [406F649E] [EB186BED] 08 83,1 [21AAD379] [27A2F8B9] 09 80,3 [4FCE4BCC] [F65CF86C] 10 69,8 [1661FE0D] [5FFF01B0] 11 88,0 [C5FCACE6] [5AE1810D]
  
foobar2000 1.1.1 / Dynamic Range Meter 1.1.1log date: 2012-07-09 10:04:27

--------------------------------------------------------------------------------Analyzed: U2 / October--------------------------------------------------------------------------------

DR Peak RMS Duration Track--------------------------------------------------------------------------------DR9 -1.10 dB -13.62 dB 4:12 01-GloriaDR9 -1.68 dB -13.46 dB 3:40 02-I Fall DownDR10 -2.32 dB -14.29 dB 4:54 03-I Threw a Brick Through a WindowDR9 -1.10 dB -13.05 dB 3:38 04-RejoiceDR9 -1.43 dB -13.12 dB 3:51 05-FireDR10 -1.21 dB -14.23 dB 4:39 06-TomorrowDR13 -4.50 dB -20.92 dB 2:21 07-OctoberDR8 -1.60 dB -12.32 dB 4:03 08-With a ShoutDR10 -1.90 dB -13.47 dB 3:56 09-Stranger in a Strange LandDR8 -3.12 dB -13.21 dB 2:54 10-ScarletDR9 -1.11 dB -12.26 dB 3:00 11-Is That All?--------------------------------------------------------------------------------

Number of tracks: 11Official DR value: DR9

Samplerate: 44100 HzChannels: 2Bits per sample: 16Bitrate: 851 kbpsCodec: FLAC

October is the second album by U2, released in 1981. The album featured spiritual themes, inspired by Bono, The Edge, and Larry Mullen, Jr.'s memberships in a Christian group called the "Shalom Fellowship", which led them to question the relationship between the Christian faith and the rock and roll lifestyle. The album received mixed reviews and limited radio play.
Personnel:
• Bono – lead vocals
• The Edge – guitar, piano, backing vocals
• Adam Clayton – bass
• Larry Mullen Jr. – drums
Огромное спасибо оригинальному релизеру!


Трекер:  [ 11-Июл-2012 16:23 ]

  

Скачать .torrent

Размер .torrent файла 13 KB


Размер: 292 MB
Хэш (hash) релиза: 2d243381dd079121ea091a9624d3e104dfbc7782

Еще никто не оставлял запись к записи скачать торрент U2 1981-October . Будь первым!

!Обратная связь