Скачать через торрент музыку Andrew Gold бесплатно без регистрации torrent

Если у вас наблюдаются проблемы со скриншотами, переходом по ссылками, скачиванием торрентов - проблемы в блокировщике рекламы AdBlock. #хорошегоДня!


Статистика раздачи
Размер:  446 MB   |    Зарегистрирован:  5 лет 4 месяца   |    .torrent скачан:  17 раз   |   
Раздают:  1  
   
Загрузка...
 
Автор Сообщение

Galfimbul

avatar Galfimbul


Andrew Gold/ ...Since 1951

Жанр: Pop/Rock
Страна-производитель диска: Japan
Год издания: 1996
Издатель (лейбл): Canyon Intenational
Номер по каталогу: PCCY-01003
Страна: U.S.A
Аудиокодек: FLAC (*.flac)
Тип рипа: image+.cue
Битрейт аудио: lossless
Продолжительность: 56:42
Источник (релизер): собственный рип
Наличие сканов в содержимом раздачи: да

Треклист:
1. Can Anybody See You - 4:10
2. Cyberspace - 4:47
3. Back On Top - 4:36
4. The King Of Showbiz - 4:53
5. First Time In Love - 3:42
6. Ready To Go Home - 4:38
7. That Belongs To You - 4:13
8. Teadrops - 4:46
9. The Secret - 4:39
10. Can't Get Used To You (duet with Lisa Ronstadt)- 4:19
11. Babys Got A Gun - 4:17
12. Watcha Think About That - 4:05
13. Safe And Sound - 3:37

All songs by Andrew Gold & Graham Gouldman (10CC, Wax)
  
Exact Audio Copy V1.0 beta 3 from 29. August 2011

EAC extraction logfile from 8. July 2012, 23:50

Andrew Gold / ...Since 1951

Used drive : SlimtypeDVD A DS8A5SH Adapter: 0 ID: 1

Read mode : SecureUtilize accurate stream : YesDefeat audio cache : YesMake use of C2 pointers : No

Read offset correction : 6Overread into Lead-In and Lead-Out : NoFill up missing offset samples with silence : YesDelete leading and trailing silent blocks : NoNull samples used in CRC calculations : YesUsed interface : Native Win32 interface for Win NT & 2000

Used output format : User Defined EncoderSelected bitrate : 320 kBit/sQuality : HighAdd ID3 tag : NoCommand line compressor : C:\Program Files (x86)\Exact Audio Copy\Flac\flac.exeAdditional command line options : -V -8 -T "Date=%year%" -T "Genre=%genre%" %source%

TOC of the extracted CD

Track | Start | Length | Start sector | End sector --------------------------------------------------------- 1 | 0:00.00 | 4:10.70 | 0 | 18819 2 | 4:10.70 | 4:47.02 | 18820 | 40346 3 | 8:57.72 | 4:36.05 | 40347 | 61051 4 | 13:34.02 | 4:53.03 | 61052 | 83029 5 | 18:27.05 | 3:42.57 | 83030 | 99736 6 | 22:09.62 | 4:38.55 | 99737 | 120641 7 | 26:48.42 | 4:13.58 | 120642 | 139674 8 | 31:02.25 | 4:46.45 | 139675 | 161169 9 | 35:48.70 | 4:39.60 | 161170 | 182154 10 | 40:28.55 | 4:19.32 | 182155 | 201611 11 | 44:48.12 | 4:17.00 | 201612 | 220886 12 | 49:05.12 | 4:05.13 | 220887 | 239274 13 | 53:10.25 | 3:37.20 | 239275 | 255569

Range status and errors

Selected range

Filename D:\My Music\Andrew Gold - 1996 ...Since 1951\Andrew Gold - ...Since 1951.wav

Peak level 100.0 % Extraction speed 4.4 X Range quality 100.0 % Test CRC BF487CB4 Copy CRC BF487CB4 Copy OK

No errors occurred

AccurateRip summary

Track 1 not present in databaseTrack 2 not present in databaseTrack 3 not present in databaseTrack 4 not present in databaseTrack 5 not present in databaseTrack 6 not present in databaseTrack 7 not present in databaseTrack 8 not present in databaseTrack 9 not present in databaseTrack 10 not present in databaseTrack 11 not present in databaseTrack 12 not present in databaseTrack 13 not present in database

None of the tracks are present in the AccurateRip database

End of status report

---- CUETools DB Plugin V2.1.3

[CTDB TOCID: 1LwMjJBdGiWic0iFBg_ypqFEMqk-] disk not present in database, Submit result: database access error: Запрос был прерван: Запрос отменен.

==== Log checksum F70CEF1A9546A5A8D6426AB392D6CE479017B3B91414A7E808E27EB67031EBCC ====
If the name rings a bell, it means you’re in your late 30s and you remember his two Top-40 hits: “Lonely Boy” and “Thank You for Being a Friend.” Yes, that’s right, Gold’s the guy who’s responsible for giving the world the theme from “The Golden Girls.” I’ll hold him down, you start kicking him.

Just kidding, Andrew.

Although he’s been flying decidedly under the radar since then, Gold has continued to release some great pop albums; in fact, between his records – both solo and with side projects like the Fraternal Order of the All and Bryndle (the latter group including Karla Bonoff) – and his production work with artists like Jesse McCartney, Lisa Carrie, and Serina Flagg, he’s arguably more active than any of his ‘70s peers. And given that those peers include Art Garfunkel, Linda Ronstadt, and James Taylor, that’s an impressive statement.

Since 1951 finds Gold continuing his trend of writing catchy, jangly pop songs, many of which are reminiscent of Del Amitri, like opener “Can Anybody See You,” “First Time in Love,” and “The Secret”; there’s also a definite Jimmy Webb vibe to “The Best of Everything.” In fact, there are several stylistic tips of the hat to other pop musicians, like Steely Dan on “Back on Top” or the Beach Boys on “Teardrops.” Creatively, the only notable misstep is “Cyberspace,” which, it must be said, sounds like an old fogey trying to keep up with the kids; fortunately, as experiments go, the instrumental “Main Title” is decidedly more successful, accomplishing its goal of creating the feel of a motion picture score.

The production throughout Since 1951 is stellar – to be expected from a guy who once handled such duties for 10cc – but it’s particularly notable on such great-sounding songs as “Can’t Get Used To Losing You” and “Baby’s Got A Gun.” By the way, although the songwriting credits aren’t readily available, if the latter song isn’t a co-write with Graham Gouldman, the 10cc stalwart who teamed with Gold to form the ‘80s band Wax (“Bridge to Your Heart”), then Gold’s just learned a lot about his former co-conspirator’s style, because it sounds just like a Gouldman song.

On the whole, these new songs are solid enough that the album doesn’t need the unnecessary, god-awful, and presumably tongue-in-cheek “Lonely Boy Redux” that closes the disc. (Actually, it’s not that bad on the whole…but the first minute of the track is excruciating.) Now that the album has been rescued from indie oblivion via Universal Music Enterprises and been made available for download via iTunes and other online outlets, here’s hoping it gets investigated more than his previous several releases have been.

Will Harris


Трекер:  [ 11-Июл-2012 16:23 ]

  

Скачать .torrent

Размер .torrent файла 19 KB


Размер: 446 MB
Хэш (hash) релиза: 34206fa6b91b3920d276d2d80746b5bb51d0d17c

Еще никто не оставлял запись к записи скачать торрент Andrew Gold . Будь первым!

!Обратная связь