Скачать через торрент Флейта да ранец бесплатно Аниме Все серии на русском torrent

Если у вас наблюдаются проблемы со скриншотами, переходом по ссылками, скачиванием торрентов - проблемы в блокировщике рекламы AdBlock. #хорошегоДня!


Статистика раздачи
Размер:  476 MB   |    Зарегистрирован:  5 лет 2 месяца   |    .torrent скачан:  27 раз   |   
Раздают:  1  
   
Загрузка...
 
Автор Сообщение

Polarnik

avatar Polarnik


Флейта да ранец [Тв-2] / Recorder to Randsell Re
リコーダーとランドセル レ♪
Страна: Япония
Год выпуска: 2012 г.
Жанр: комедия, школа
Тип: ТВ (13 эп.), 3 мин.
Режиссер: Кимура Хироси
Студия:
Описание: Сюжет крутится вокруг Атсуши Миягава и его сестры Атсуми Миягава, которые выглядят довольно странно для своего возраста. Атсуши — около 180 сантиметров роста, крайне смахивает на взрослого, хотя на самом деле учится в начальной школе. Его сестренка выглядит малышкой, зато в реальности она ученица старших классов.
Доп. информация: Озвучивание: Симбад
Перевод на русский язык: Матадор, nismo
Семпл: http://multi-up.com/730270
Качество: HDTVRip
Тип релиза: Без хардсаба
Формат видео: MP4
Наличие линковки: Нет
Видео: H.264, 1280x720, 1 255 Kbps, 23.976 fps
Аудио: RUS - AAC, 48000Hz, ~192 Kbps, 2ch Язык Русский (в составе контейнера)
GeneralПолное имя : E:\Фильмы\Аниме\Recorder to Randoseru Re\Recorder to Randsell Re\Recorder to Randsell Re - 01 (KBS 1280x720 x264 AAC) [Симбад].mp4Формат : MPEG-4Профайл формата : Base MediaИдентификатор кодека : isomРазмер файла : 31.1 MiBПродолжительность : 3mn 0sОбщий поток : 1 450 KbpsДата кодирования : UTC 2012-04-10 13:54:32Дата отметки : UTC 2012-04-10 13:54:32

VideoФормат : AVCФормат/Информация : Advanced Video CodecПрофайл формата : <a href="mailto:High@L5.0Настройка" class="postLink">High@L5.0Настройка</a> CABAC формата : YesНастройка ReFrames формата : 16 framesИдентификатор кодека : avc1Идентификатор кодека/Информация : Advanced Video CodingПродолжительность : 3mn 0sВид битрейта : VariableБитрейт : 1 255 KbpsМаксимальный битрейт : 5 821 KbpsШирина : 1 280 pixelsВысота : 720 pixelsСоотношение кадра : 16/9Режим частоты кадров : ConstantЧастота кадров : 23.976 fpsРазрешение : 24 bitsКолориметрия : 4:2:0Тип развёртки : ProgressiveБит/(Пиксели*Кадры) : 0.057Размер потока : 26.9 MiB (87%)Библиотека кодирования : x264 core 120 r2164+656 2ff844cНастройки программы : cabac=1 / ref=16 / deblock=1:1:1 / analyse=0x3:0x133 / me=umh / subme=10 / psy=1 / fade_compensate=0.80 / psy_rd=0.80:0.00 / mixed_ref=1 / me_range=24 / chroma_me=1 / trellis=2 / 8x8dct=1 / cqm=0 / deadzone=21,11 / fast_pskip=0 / chroma_qp_offset=-2 / threads=18 / sliced_threads=0 / nr=0 / decimate=1 / interlaced=0 / bluray_compat=0 / constrained_intra=0 / fgo=0 / bframes=16 / b_pyramid=2 / b_adapt=2 / b_bias=0 / direct=3 / weightb=1 / open_gop=0 / weightp=2 / keyint=250 / keyint_min=23 / scenecut=40 / intra_refresh=0 / rc_lookahead=60 / rc=crf / mbtree=1 / crf=17.0 / qcomp=0.60 / qpmin=0 / qpmax=69 / qpstep=4 / ip_ratio=1.40 / aq=1:1.00Дата кодирования : UTC 2012-04-10 13:54:32Дата отметки : UTC 2012-04-10 13:54:42

AudioФормат : AACФормат/Информация : Advanced Audio CodecВерсия формата : Version 4Профайл формата : LCНастройка SBR формата : NoИдентификатор кодека : 40Продолжительность : 3mn 0sВид битрейта : VariableБитрейт : 192 KbpsМаксимальный битрейт : 195 KbpsКанал(ы) : 2 channelsРасположение каналов : L RЧастота : 48.0 KHzРазрешение : 16 bitsРазмер потока : 4.10 MiB (13%)Дата кодирования : UTC 2012-04-10 13:54:39Дата отметки : UTC 2012-04-10 13:54:42

01. Первоклашки и недопонимание
02. Ацуси и велосипед
03. Кем мечтаю стать в будущем
04. Сладости и поддержка
05. Семья и горячие источники
06. Ацуси и соревнования часть 1
07. Ацуси и соревнования часть 2
08. Недоразумение и правда
09. Ацуси и одежда "по наследству"
10. Ацуси и школьный фестиваль
11. Старшая сестра и младшая сестра
12. Ацуси и погоня
13. Ацуси и прощание


Трекер:  [ 10-Июл-2012 17:17 ]

  

Скачать .torrent

Размер .torrent файла 20 KB


Размер: 476 MB
Хэш (hash) релиза: e8fc1c09abc13e8140824f9de40bd7a572817ab9
Подписка на обновления:

Торренты, похожие на Флейта да ранец скачать торрент

Форум Название Автор Размер S L Добавлен
Аниме | Rips ·· Флейта да ранец OVA / Recorder to Randsell OVA [OVA] [01-02 из 02] [Без хардсаба] [RUS(int)] [2012 г., комедия, TVRip] Galfimbul 7389983370 MB 0 0 1344198300

23:25

5-Авг-12

Аниме | Rips ·· Флейта да ранец [ТВ-2] / Recorder to Randsell Re [TV] [1-5 из >13] [Без хардсаба] [RUS(int), JAP + SUB] [2012 г., комедия, школа, HDTVRip] [HWP] Umakiro 165596244158 MB 0 0 1336886940

08:29

13-Май-12

Еще никто не оставлял запись к записи скачать торрент Флейта да ранец . Будь первым!

!Обратная связь