Скачать через торрент музыку Radio Heart Featuring Gary Numan - Radio Heart - 1999, FLAC бесплатно без регистрации torrent

Если у вас наблюдаются проблемы со скриншотами, переходом по ссылками, скачиванием торрентов - проблемы в блокировщике рекламы AdBlock. #хорошегоДня!


Статистика раздачи
Размер:  273 MB   |    Зарегистрирован:  5 лет 4 месяца   |    .torrent скачан:  23 раза   |   
Раздают:  1  
   
Загрузка...
 
Автор Сообщение

Galfimbul

avatar Galfimbul


Radio Heart Featuring Gary Numan / Radio Heart

Жанр: Pop-Rock
Страна-производитель диска: UK
Год издания: 1999 Originally released 1987
Издатель (лейбл): The Record Label
Номер по каталогу: SPINCD2003
Аудиокодек: FLAC (*.flac)
Тип рипа: image+.cue
Битрейт аудио: lossless
Продолжительность: 00:36:49
Наличие сканов : да

Треклист:
1. Radio Heart 3:44
2. Blue Nights 4:39
3. Starlight Jingles 4:10
4. Strange Thing 4:29
5. All Across The Nation 4:00
6. I'm Alone 4:09
7. Mad About The Girl 3:49
8. London Times 3:44
9. The Victim 4:00
  
Exact Audio Copy V1.0 beta 1 from 15. November 2010

EAC extraction logfile from 14. June 2012, 10:26

Radio Heart / Radio Heart feat. Gary Numan

Used drive : MATSHITADVD-RAM UJ-840S Adapter: 1 ID: 0

Read mode : SecureUtilize accurate stream : YesDefeat audio cache : YesMake use of C2 pointers : No

Read offset correction : 102Overread into Lead-In and Lead-Out : NoFill up missing offset samples with silence : YesDelete leading and trailing silent blocks : NoNull samples used in CRC calculations : YesUsed interface : Native Win32 interface for Win NT & 2000

Used output format : Internal WAV RoutinesSample format : 44.100 Hz; 16 Bit; Stereo

TOC of the extracted CD

Track | Start | Length | Start sector | End sector --------------------------------------------------------- 1 | 0:00.00 | 3:48.13 | 0 | 17112 2 | 3:48.13 | 4:39.29 | 17113 | 38066 3 | 8:27.42 | 4:12.34 | 38067 | 57000 4 | 12:40.01 | 4:28.31 | 57001 | 77131 5 | 17:08.32 | 4:01.54 | 77132 | 95260 6 | 21:10.11 | 4:11.03 | 95261 | 114088 7 | 25:21.14 | 3:48.03 | 114089 | 131191 8 | 29:09.17 | 3:40.58 | 131192 | 147749 9 | 32:50.00 | 3:59.11 | 147750 | 165685

Range status and errors

Selected range

Filename C:\Documents and Settings\User\Desktop\RH\Radio Heart - Radio Heart feat. Gary Numan.wav

Peak level 87.1 % Extraction speed 0.2 X Range quality 100.0 % Copy CRC E12BE84B Copy OK

No errors occurred

End of status report
  
REM GENRE Pop-RockREM DATE 1987REM DISCID 6008A109REM COMMENT "ExactAudioCopy v1.0b1"PERFORMER "Radio Heart"TITLE "Radio Heart feat. Gary Numan"FILE "Radio Heart - Radio Heart feat. Gary Numan.flac" WAVE TRACK 01 AUDIO TITLE "Radio Heart" PERFORMER "Radio Heart" INDEX 01 00:00:00 TRACK 02 AUDIO TITLE "Blue Nights" PERFORMER "Radio Heart" INDEX 01 03:48:13 TRACK 03 AUDIO TITLE "Starlight Jingles" PERFORMER "Radio Heart" INDEX 01 08:27:42 TRACK 04 AUDIO TITLE "Strange Thing" PERFORMER "Radio Heart" INDEX 01 12:40:01 TRACK 05 AUDIO TITLE "All Across The Nation" PERFORMER "Radio Heart" INDEX 01 17:08:32 TRACK 06 AUDIO TITLE "I'm Alone" PERFORMER "Radio Heart" INDEX 01 21:10:11 TRACK 07 AUDIO TITLE "Mad About The Girl" PERFORMER "Radio Heart" INDEX 01 25:21:14 TRACK 08 AUDIO TITLE "London Times" PERFORMER "Radio Heart" INDEX 01 29:09:17 TRACK 09 AUDIO TITLE "The Victim" PERFORMER "Radio Heart" INDEX 01 32:50:00


Трекер:  [ 11-Июл-2012 16:23 ]

  

Скачать .torrent

Размер .torrent файла 11 KB


Размер: 273 MB
Хэш (hash) релиза: d777527e35713090279115c7ba4d4b45c588154e

Еще никто не оставлял запись к записи скачать торрент Radio Heart Featuring Gary Numan - Radio Heart - 1999, FLAC . Будь первым!

!Обратная связь