Скачать через торрент музыку Izz - Crush of Night бесплатно без регистрации torrent

Если у вас наблюдаются проблемы со скриншотами, переходом по ссылками, скачиванием торрентов - проблемы в блокировщике рекламы AdBlock. #хорошегоДня!


Статистика раздачи
Размер:  383 MB   |    Зарегистрирован:  5 лет 1 месяц   |    .torrent скачан:  13 раз   |   
Раздают:  1  
   
Загрузка...
 
Автор Сообщение

Galfimbul

avatar Galfimbul


Izz - Crush of Night

Жанр: Symphonic Progressive
Год выпуска диска: 2012
Страна: USA
Label: Doone records
Catalog Nr.: DR10-669563
Аудио кодек: FLAC
Тип рипа: image+.cue(test&copy)
Продолжительность: 54:45
Источник: свой рип

Трэклист:

1. You've Got A Time (4:09)
2. Words and Miracles (7:18)
3. Solid Ground (6:02)
4. Half the Way (6:07)
5. This Reality (13:32)
6. The Crush of Night (13:18)
7. Almost Over (4:19)

Total Time: 54:45

Музыканты

- Tom Galgano / keyboards, vocals
- Paul Bremner / electric & acoustic guitars
- Brian Coralian / electronic & acoustic drums, percussion
- Greg DiMiceli / acoustic drums, percussion
- John Galgano / bass guitar, acoustic guitar, vocals
- Anmarie Byrnes / vocals

Guest musicians:
- Gary Green / guitars and backing vocals (2 & 4)
- Greg Meade / guitar solo (7)

Об альбоме: Жемчужина американского симфо-прогрессива одарила поклонников новым шикарным (шестым по счёту) студийным альбомом, с которым уже многие ознакомились по раздачам в убогих форматах.
И, хотя мне лично, их предыдущий релиз (трёхлетней давности) нравится несколько больше, рекомендую этот к прослушиванию, как очень сильную работу.
Exact Audio Copy V1.0 beta 3 from 29. August 2011

EAC extraction logfile from 5. July 2012, 23:18

Izz / Crush of Night

Used drive : TEAC CD-W516EB Adapter: 0 ID: 0

Read mode : Secure
Utilize accurate stream : Yes
Defeat audio cache : Yes
Make use of C2 pointers : No

Read offset correction : 685
Overread into Lead-In and Lead-Out : No
Fill up missing offset samples with silence : Yes
Delete leading and trailing silent blocks : No
Null samples used in CRC calculations : Yes
Used interface : Native Win32 interface for Win NT & 2000

Used output format : User Defined Encoder
Selected bitrate : 1024 kBit/s
Quality : High
Add ID3 tag : Yes
Command line compressor : C:\Program Files (x86)\FLAC\flac.exe
Additional command line options : -6 -V -T "ARTIST=%artist%" -T "TITLE=%title%" -T "ALBUM=%albumtitle%" -T "DATE=%year%" -T "TRACKNUMBER=%tracknr%" -T "GENRE=%genre%" -T "COMMENT=%comment%" %source% -o %dest%

TOC of the extracted CD

Track | Start | Length | Start sector | End sector
---------------------------------------------------------
1 | 0:00.00 | 4:09.28 | 0 | 18702
2 | 4:09.28 | 7:17.60 | 18703 | 51537
3 | 11:27.13 | 6:01.54 | 51538 | 78666
4 | 17:28.67 | 6:07.00 | 78667 | 106191
5 | 23:35.67 | 13:32.26 | 106192 | 167117
6 | 37:08.18 | 13:18.21 | 167118 | 226988
7 | 50:26.39 | 4:19.37 | 226989 | 246450

Range status and errors

Selected range

Filename Y:\EAC\wurensh\Izz\Izz - Crush of Night.wav

Peak level 99.0 %
Extraction speed 7.4 X
Range quality 100.0 %
Test CRC A763C633
Copy CRC A763C633
Copy OK

No errors occurred

AccurateRip summary

Track 1 not present in database
Track 2 not present in database
Track 3 not present in database
Track 4 not present in database
Track 5 not present in database
Track 6 not present in database
Track 7 not present in database

None of the tracks are present in the AccurateRip database

End of status report

---- CUETools DB Plugin V2.1.3

[CTDB TOCID: Hy3DQv5YLGGEOnvliONLO7J24XQ-] found, Submit result: Hy3DQv5YLGGEOnvliONLO7J24XQ- has been confirmed
[feb2258b] (2/2) Accurately ripped
[CUETools log; Date: 07.07.2012 20:16:15; Version: 2.1.4]
[CTDB TOCID: Hy3DQv5YLGGEOnvliONLO7J24XQ-] found.
Track | CTDB Status
1 | (3/3) Accurately ripped
2 | (3/3) Accurately ripped
3 | (3/3) Accurately ripped
4 | (3/3) Accurately ripped
5 | (3/3) Accurately ripped
6 | (3/3) Accurately ripped
7 | (3/3) Accurately ripped
[AccurateRip ID: 000daaaa-00557678-480cd607] found.
Track [ CRC | V2 ] Status
01 [1963e56c|620964db] (0+0/0) No match
02 [6e101f7d|5e35f558] (0+0/0) No match
03 [4a02001e|c95af114] (0+0/0) No match
04 [d6dcc05a|a9eeaab7] (0+0/0) No match
05 [effb6a9d|ea161363] (0+0/0) No match
06 [e58918ce|e886d219] (0+0/0) No match
07 [b055b4dc|5439e93d] (0+0/0) No match

Track Peak [ CRC32 ] [W/O NULL] [ LOG ]
-- 99,0 [A763C633] [9D3A92AE] CRC32
01 98,8 [AF568A23] [F1EC4991]
02 98,8 [766EBE63] [E5C7A780]
03 99,0 [E2EEEBD1] [2E5169F6]
04 98,8 [39D094B9] [C1CD2B0C]
05 98,8 [55AC7837] [ADE9A95F]
06 98,8 [128B8673] [9EC796F1]
07 98,8 [17D4EDB7] [A4BF61D4]


Трекер:  [ 11-Июл-2012 16:23 ]

  

Скачать .torrent

Размер .torrent файла 16 KB


Размер: 383 MB
Хэш (hash) релиза: d5e7f674b8e73158f6ddf447650d61d899182fd5

Торренты, похожие на Izz - Crush of Night скачать торрент

Форум Название Автор Размер S L Добавлен
Зарубежный Rock ·· (Symphonic Progressive) Izz - Crush Of Night - 2012, MP3, V1 L 9129028087 MB 0 0 1336108620

08:17

4-Май-12

Еще никто не оставлял запись к записи скачать торрент Izz - Crush of Night . Будь первым!

!Обратная связь