Скачать через торрент музыку Quantum Fantay - From Herzberg To Living Room - 2008, FLAC бесплатно без регистрации torrent

Если у вас наблюдаются проблемы со скриншотами, переходом по ссылками, скачиванием торрентов - проблемы в блокировщике рекламы AdBlock. #хорошегоДня!


Статистика раздачи
Размер:  730 MB   |    Зарегистрирован:  5 лет 3 месяца   |    .torrent скачан:  18 раз   |   
Раздают:  1  
   
Загрузка...
 
Автор Сообщение

Galfimbul

avatar Galfimbul


Quantum Fantay - From Herzberg To Living Room (2008)

Жанр: Psychedelic/Space Rock
Страна-производитель диска: Belgium
Год издания: 2008
Издатель (лейбл): Inakustik
Номер по каталогу: v-hb-019
Страна: Belgium
Аудиокодек: FLAC (*.flac)
Тип рипа: image+.cue
Битрейт аудио: lossless
Продолжительность: 60:27; 44:15
Источник (релизер): parsrecar
Наличие сканов в содержимом раздачи: да
1. Kaleidothrope (8:48)
2. The Spirit (7:07)
3. Wais Dame Dilamp (2:58)
4. Blocktail (5:13)
5. March Of The Buffelario (9:34)
6. Lanatanasch (7:29)
7. Forehead Echo (4:43)
8. Wintershades (6:56)
9. Ugisiunsi (7:35)
  
Exact Audio Copy V0.99 prebeta 4 from 23. January 2008

Отчёт EAC об извлечении, выполненном 28. апреля 2008, 18:50

Quantum Fantay / From Herzberg to Living Room

Дисковод: HL-DT-STDVD-RAM GSA-H55N Adapter: 1 ID: 1

Режим чтения : ДостоверностьИспользование точного потока : ДаОтключение кэша аудио : ДаИспользование указателей C2 : Нет

Коррекция смещения при чтении : 102Способность читать области Lead-in и Lead-out : НетЗаполнение пропущенных сэмплов тишиной : ДаУдаление блоков с тишиной в начале и конце : НетПри вычислениях CRC использовались нулевые сэмплы : НетИнтерфейс : Встроенный Win32-интерфейс для Win NT/2000

Выходной формат : Пользовательский кодировщикВыбранный битрейт : 1024 kBit/sКачество : ВысокийДобавление ID3-тэга : НетУтилита сжатия : E:\Program Files\Exact Audio Copy\FLAC\FLAC.EXEДополнительные параметры : -6 -V -T "ARTIST=%a" -T "TITLE=%t" -T "ALBUM=%g" -T "DATE=%y" -T "TRACKNUMBER=%n" -T "GENRE=%m" -T "COMMENT=%e" %s -o %d

TOC извлечённого CD

Трек | Старт | Длительность | Начальный сектор | Конечный сектор --------------------------------------------------------------------- 1 | 0:00.00 | 8:48.34 | 0 | 39633 2 | 8:48.34 | 7:07.12 | 39634 | 71670 3 | 15:55.46 | 2:58.05 | 71671 | 85025 4 | 18:53.51 | 5:13.15 | 85026 | 108515 5 | 24:06.66 | 9:34.30 | 108516 | 151595 6 | 33:41.21 | 7:29.46 | 151596 | 185316 7 | 41:10.67 | 4:43.62 | 185317 | 206603 8 | 45:54.54 | 6:56.12 | 206604 | 237815 9 | 52:50.66 | 7:36.30 | 237816 | 272045

Характеристики диапазона извлечения и сообщения об ошибках

Выбранный диапазон

Имя файла E:\mydoc\My Music\Quantum Fantay-From Herzberg to Living Room(2008)\Quantum Fantay - From Herzberg to Living Room CD1.wav

Пиковый уровень 96.6 % Качество диапазона 100.0 % CRC копии 6C711BDB Копирование... OK

Ошибок не произошло

AccurateRip: сводка

Трек 1 нет в базе данныхТрек 2 нет в базе данныхТрек 3 нет в базе данныхТрек 4 нет в базе данныхТрек 5 нет в базе данныхТрек 6 нет в базе данныхТрек 7 нет в базе данныхТрек 8 нет в базе данныхТрек 9 нет в базе данных

Ни одного трека нет в базе AccurateRip

Конец отчёта
  
REM GENRE "Psychedelic/Space Rock"REM DATE 2008REM DISCID 710E2B09REM COMMENT "ExactAudioCopy v0.99pb4"PERFORMER "Quantum Fantay"TITLE "From Herzberg to Living Room (CD 1)"FILE "Quantum Fantay - From Herzberg to Living Room (CD 1).flac" WAVE TRACK 01 AUDIO TITLE "Kaleidothrope" PERFORMER "Quantum Fantay" INDEX 01 00:00:00 TRACK 02 AUDIO TITLE "The Spirit" PERFORMER "Quantum Fantay" INDEX 00 08:48:33 INDEX 01 08:48:34 TRACK 03 AUDIO TITLE "Wais Dame Dilamp" PERFORMER "Quantum Fantay" INDEX 00 15:55:45 INDEX 01 15:55:46 TRACK 04 AUDIO TITLE "Blocktail" PERFORMER "Quantum Fantay" INDEX 00 18:53:50 INDEX 01 18:53:51 TRACK 05 AUDIO TITLE "March of the Buffelario" PERFORMER "Quantum Fantay" INDEX 01 24:06:66 TRACK 06 AUDIO TITLE "Lantanasch" PERFORMER "Quantum Fantay" INDEX 00 33:41:20 INDEX 01 33:41:21 TRACK 07 AUDIO TITLE "Forehead Echo" PERFORMER "Quantum Fantay" INDEX 01 41:10:67 TRACK 08 AUDIO TITLE "Wintershades" PERFORMER "Quantum Fantay" INDEX 01 45:54:54 TRACK 09 AUDIO TITLE "Ugisiunsi" PERFORMER "Quantum Fantay" INDEX 00 52:50:65 INDEX 01 52:50:66
  
4250920116 639852236 Quantum Fantay - From Herzberg to Living Room (CD 1).wav

auCDtect: CD records authenticity detector, version 0.8.2Copyright (c) 2004 Oleg Berngardt. All rights reserved.Copyright (c) 2004 Alexander Djourik. All rights reserved.------------------------------------------------------------Processing file: [Quantum Fantay - From Herzberg to Living Room (CD 1).wav]

------------------------------------------------------------This track looks like CDDA with probability 100%

------------------------------------------------------------Final Conclusion:------------------------------------------------------------These tracks looks like CDDA with probability 100%
1. Autumn Landscapes (6:53)
2. Niek Shlut (7:32)
3. Trip Escape (12:29)
4. Snowballs In Ghostland (6:16)
5. Aganpanthusterra (11:01)
  
Exact Audio Copy V0.99 prebeta 4 from 23. January 2008

Отчёт EAC об извлечении, выполненном 28. апреля 2008, 19:11

Quantum Fantay / From Herzberg To Living Room

Дисковод: HL-DT-STDVD-RAM GSA-H55N Adapter: 1 ID: 1

Режим чтения : ДостоверностьИспользование точного потока : ДаОтключение кэша аудио : ДаИспользование указателей C2 : Нет

Коррекция смещения при чтении : 102Способность читать области Lead-in и Lead-out : НетЗаполнение пропущенных сэмплов тишиной : ДаУдаление блоков с тишиной в начале и конце : НетПри вычислениях CRC использовались нулевые сэмплы : НетИнтерфейс : Встроенный Win32-интерфейс для Win NT/2000

Выходной формат : Пользовательский кодировщикВыбранный битрейт : 1024 kBit/sКачество : ВысокийДобавление ID3-тэга : НетУтилита сжатия : E:\Program Files\Exact Audio Copy\FLAC\FLAC.EXEДополнительные параметры : -6 -V -T "ARTIST=%a" -T "TITLE=%t" -T "ALBUM=%g" -T "DATE=%y" -T "TRACKNUMBER=%n" -T "GENRE=%m" -T "COMMENT=%e" %s -o %d

TOC извлечённого CD

Трек | Старт | Длительность | Начальный сектор | Конечный сектор --------------------------------------------------------------------- 1 | 0:00.00 | 6:54.11 | 0 | 31060 2 | 6:54.11 | 7:32.69 | 31061 | 65029 3 | 14:27.05 | 12:29.03 | 65030 | 121207 4 | 26:56.08 | 6:16.28 | 121208 | 149435 5 | 33:12.36 | 11:02.36 | 149436 | 199121

Характеристики диапазона извлечения и сообщения об ошибках

Выбранный диапазон

Имя файла E:\mydoc\My Music\Quantum Fantay-From Herzberg to Living Room(2008)\Quantum Fantay - From Herzberg To Living Room.wav

Пиковый уровень 96.6 % Качество диапазона 100.0 % CRC копии C62631E2 Копирование... OK

Ошибок не произошло

AccurateRip: сводка

Трек 1 нет в базе данныхТрек 2 нет в базе данныхТрек 3 нет в базе данныхТрек 4 нет в базе данныхТрек 5 нет в базе данных

Ни одного трека нет в базе AccurateRip

Конец отчёта
  
REM GENRE "Progressive Rock"REM DATE 2008REM DISCID 4B0A5E05REM COMMENT "ExactAudioCopy v0.99pb4"PERFORMER "Quantum Fantay"TITLE "From Herzberg To Living Room (CD 2)"FILE "Quantum Fantay - From Herzberg To Living Room (CD 2).flac" WAVE TRACK 01 AUDIO TITLE "Autumn Landscapes" PERFORMER "Quantum Fantay" INDEX 01 00:00:00 TRACK 02 AUDIO TITLE "Niek Shlut" PERFORMER "Quantum Fantay" INDEX 00 06:54:10 INDEX 01 06:54:11 TRACK 03 AUDIO TITLE "Trip Escape" PERFORMER "Quantum Fantay" INDEX 00 14:27:04 INDEX 01 14:27:05 TRACK 04 AUDIO TITLE "Snowballs In Ghostlands" PERFORMER "Quantum Fantay" INDEX 01 26:56:08 TRACK 05 AUDIO TITLE "Agapanthusterra" PERFORMER "Quantum Fantay" INDEX 01 33:12:36
  
1625512666 468334988 Quantum Fantay - From Herzberg To Living Room (CD 2).wav

auCDtect: CD records authenticity detector, version 0.8.2Copyright (c) 2004 Oleg Berngardt. All rights reserved.Copyright (c) 2004 Alexander Djourik. All rights reserved.------------------------------------------------------------Processing file: [Quantum Fantay - From Herzberg To Living Room (CD 2).wav]

------------------------------------------------------------This track looks like CDDA with probability 100%

------------------------------------------------------------Final Conclusion:------------------------------------------------------------These tracks looks like CDDA with probability 100%
Доп. информация: Agapanthusterra
Kонцертная запись из бельгийского spacerockers выступление на фестивале Burg Herzberg в '07.
- Gino Bartolini / drums, gong
- Dario Frodo / guitars
- Pete Mush / synthesizers
- Charles Sla / flute
- Jaro / bass


Трекер:  [ 11-Июл-2012 16:23 ]

  

Скачать .torrent

Размер .torrent файла 15 KB


Размер: 730 MB
Хэш (hash) релиза: 22f547861293cfb292502963ae27048b59ac3d6c

Еще никто не оставлял запись к записи скачать торрент Quantum Fantay - From Herzberg To Living Room - 2008, FLAC . Будь первым!

!Обратная связь