Скачать через торрент музыку Donnie & Joe Emerson - Dreamin Wild - 1979 Remastered 2012, FLAC бесплатно без регистрации torrent

Если у вас наблюдаются проблемы со скриншотами, переходом по ссылками, скачиванием торрентов - проблемы в блокировщике рекламы AdBlock. #хорошегоДня!


Статистика раздачи
Размер:  215 MB   |    Зарегистрирован:  5 лет 3 месяца   |    .torrent скачан:  42 раза   |   
Раздают:  1  
   
Загрузка...
 
Автор Сообщение

Galfimbul

avatar Galfimbul


Donnie & Joe Emerson / Dreamin' Wild

Жанр: Psychedelic Rock, Soul
Страна-производитель диска: USA
Год издания: 1979 / Remastered 2012
Издатель (лейбл): Light In The Attic
Номер по каталогу: LITA 082
Страна: USA
Аудиокодек: FLAC (*.flac)
Тип рипа: tracks+.cue
Битрейт аудио: lossless
Продолжительность: 00:40:47
Источник (релизер): artmuss
Наличие сканов в содержимом раздачи: нет
Треклист:
1. Good Time (4:21)
2. Give Me The Chance (2:53)
3. Baby (4:10)
4. Feels Like the Sun (6:43)
5. Love Is (3:06)
6. Don't Go Lovin' Nobody Else (5:41)
7. Dream Full of Dreams (5:43)
8. My Heart (7:54)
  
Exact Audio Copy V1.0 beta 3 from 29. August 2011

EAC extraction logfile from 23. June 2012, 17:42

Donnie & Joe Emerson / Dreamin' Wild

Used drive : PIONEER DVD-RW DVRTD10RS Adapter: 0 ID: 1

Read mode : SecureUtilize accurate stream : YesDefeat audio cache : YesMake use of C2 pointers : No

Read offset correction : 6Overread into Lead-In and Lead-Out : NoFill up missing offset samples with silence : YesDelete leading and trailing silent blocks : NoNull samples used in CRC calculations : YesUsed interface : Native Win32 interface for Win NT & 2000Gap handling : Appended to previous track

Used output format : User Defined EncoderSelected bitrate : 896 kBit/sQuality : HighAdd ID3 tag : YesCommand line compressor : C:\Program Files (x86)\Exact Audio Copy\Flac\flac.exeAdditional command line options : -8 -V -T "ARTIST=%artist%" -T "TITLE=%title%" -T "ALBUM=%albumtitle%" -T "DATE=%year%" -T "TRACKNUMBER=%tracknr%" -T "GENRE=%genre%" -T "PERFORMER=%albuminterpret%" -T "COMPOSER=%composer%" %haslyrics%--tag-from-file=LYRICS="%lyricsfile%"%haslyrics% -T "ALBUMARTIST=%albumartist%" -T "DISCNUMBER=%cdnumber%" -T "TOTALDISCS=%totalcds%" -T "TOTALTRACKS=%numtracks%" -T "COMMENT=%comment%" %source% -o %dest%

TOC of the extracted CD

Track | Start | Length | Start sector | End sector --------------------------------------------------------- 1 | 0:00.00 | 4:23.64 | 0 | 19788 2 | 4:23.64 | 2:56.31 | 19789 | 33019 3 | 7:20.20 | 4:11.10 | 33020 | 51854 4 | 11:31.30 | 6:44.23 | 51855 | 82177 5 | 18:15.53 | 3:07.58 | 82178 | 96260 6 | 21:23.36 | 5:43.26 | 96261 | 122011 7 | 27:06.62 | 5:45.50 | 122012 | 147936 8 | 32:52.37 | 7:54.20 | 147937 | 183506

Track 1

Filename C:\Users\Mark\Music\EAC Rips\Donnie & Joe Emerson - Dreamin' Wild\01 - Good Time.wav

Pre-gap length 0:00:02.00

Peak level 96.5 % Extraction speed 2.6 X Track quality 100.0 % Test CRC 1613C09B Copy CRC 1613C09B Track not present in AccurateRip database Copy OK

Track 2

Filename C:\Users\Mark\Music\EAC Rips\Donnie & Joe Emerson - Dreamin' Wild\02 - Give Me the Chance.wav

Pre-gap length 0:00:02.61

Peak level 96.5 % Extraction speed 2.7 X Track quality 100.0 % Test CRC 876465C4 Copy CRC 876465C4 Track not present in AccurateRip database Copy OK

Track 3

Filename C:\Users\Mark\Music\EAC Rips\Donnie & Joe Emerson - Dreamin' Wild\03 - Baby.wav

Pre-gap length 0:00:02.78

Peak level 96.5 % Extraction speed 3.1 X Track quality 100.0 % Test CRC 4E439E35 Copy CRC 4E439E35 Track not present in AccurateRip database Copy OK

Track 4

Filename C:\Users\Mark\Music\EAC Rips\Donnie & Joe Emerson - Dreamin' Wild\04 - Feels Like the Sun.wav

Pre-gap length 0:00:00.60

Peak level 96.5 % Extraction speed 3.6 X Track quality 100.0 % Test CRC 3DC3D82A Copy CRC 3DC3D82A Track not present in AccurateRip database Copy OK

Track 5

Filename C:\Users\Mark\Music\EAC Rips\Donnie & Joe Emerson - Dreamin' Wild\05 - Love Is.wav

Pre-gap length 0:00:00.48

Peak level 96.5 % Extraction speed 3.5 X Track quality 100.0 % Test CRC CE534F4E Copy CRC CE534F4E Track not present in AccurateRip database Copy OK

Track 6

Filename C:\Users\Mark\Music\EAC Rips\Donnie & Joe Emerson - Dreamin' Wild\06 - Don't Go Lovin' Nobody Else.wav

Pre-gap length 0:00:01.18

Peak level 96.5 % Extraction speed 4.1 X Track quality 100.0 % Test CRC D6225111 Copy CRC D6225111 Track not present in AccurateRip database Copy OK

Track 7

Filename C:\Users\Mark\Music\EAC Rips\Donnie & Joe Emerson - Dreamin' Wild\07 - Dream Full of Dreams.wav

Pre-gap length 0:00:01.84

Peak level 96.5 % Extraction speed 4.4 X Track quality 100.0 % Test CRC 00ADEB37 Copy CRC 00ADEB37 Track not present in AccurateRip database Copy OK

Track 8

Filename C:\Users\Mark\Music\EAC Rips\Donnie & Joe Emerson - Dreamin' Wild\08 - My Heart.wav

Pre-gap length 0:00:02.18

Peak level 96.5 % Extraction speed 4.8 X Track quality 100.0 % Test CRC AFF135A8 Copy CRC AFF135A8 Track not present in AccurateRip database Copy OK

None of the tracks are present in the AccurateRip database

No errors occurred

End of status report

---- CUETools DB Plugin V2.1.3

[CTDB TOCID: EVkJJ9CMUlaTvSdtYUo2xThfw08-] disk not present in database, Submit result: EVkJJ9CMUlaTvSdtYUo2xThfw08- has been uploaded

==== Log checksum FEB123D4CF6543A327DAF44E3C5CBE7DB4E4DA569BA8CC6B1C6FFA06A122A5C6 ====
  
REM GENRE SoulREM DATE 1979REM DISCID 72098E08REM COMMENT "ExactAudioCopy v1.0b3"PERFORMER "Donnie & Joe Emerson"TITLE "Dreamin' Wild"FILE "01 - Good Time.wav" WAVE TRACK 01 AUDIO TITLE "Good Time" PERFORMER "Donnie & Joe Emerson" INDEX 01 00:00:00 TRACK 02 AUDIO TITLE "Give Me the Chance" PERFORMER "Donnie & Joe Emerson" INDEX 00 04:21:18FILE "02 - Give Me the Chance.wav" WAVE INDEX 01 00:00:00 TRACK 03 AUDIO TITLE "Baby" PERFORMER "Donnie & Joe Emerson" INDEX 00 02:53:47FILE "03 - Baby.wav" WAVE INDEX 01 00:00:00 TRACK 04 AUDIO TITLE "Feels Like the Sun" PERFORMER "Donnie & Joe Emerson" INDEX 00 04:10:40FILE "04 - Feels Like the Sun.wav" WAVE INDEX 01 00:00:00 TRACK 05 AUDIO TITLE "Love Is" PERFORMER "Donnie & Joe Emerson" INDEX 00 06:43:62FILE "05 - Love Is.wav" WAVE INDEX 01 00:00:00 TRACK 06 AUDIO TITLE "Don't Go Lovin' Nobody Else" PERFORMER "Donnie & Joe Emerson" INDEX 00 03:06:44FILE "06 - Don't Go Lovin' Nobody Else.wav" WAVE INDEX 01 00:00:00 TRACK 07 AUDIO TITLE "Dream Full of Dreams" PERFORMER "Donnie & Joe Emerson" INDEX 00 05:41:38FILE "07 - Dream Full of Dreams.wav" WAVE INDEX 01 00:00:00 TRACK 08 AUDIO TITLE "My Heart" PERFORMER "Donnie & Joe Emerson" INDEX 00 05:43:36FILE "08 - My Heart.wav" WAVE INDEX 01 00:00:00
Pacific Northwest isolation mixed with wide-eyed ambition, a strong sense of family and the gift of music proved to be quite the combination for teenage brothers Donnie and Joe Emerson. Originally released in 1979, Dreamin’ Wild is the sonic vision of the talented Emerson boys, recorded in a family built home studio in rural Washington State. Situated in the unlikely blink-and-you-missed-it town of Fruitland and far removed from the late 1970s punk movement and the larger disco boom, Donnie and Joe tilled their own musical soil, channeling bedroom pop jams, raw funk, and yacht rock.
Originally released in 1979, Dreamin’ Wild is the sonic vision of the talented Emerson boys, recorded in a family built home studio in rural Washington State. Situated in the unlikely blink-and-you-missed-it town of Fruitland and far removed from the late 1970s punk movement and the larger disco boom, Donnie and Joe tilled their own musical soil, channeling bedroom pop jams, raw funk, and yacht rock.


Трекер:  [ 11-Июл-2012 16:22 ]

  

Скачать .torrent

Размер .torrent файла 18 KB


Размер: 215 MB
Хэш (hash) релиза: ea40e3616faa4efcdfa677c42fdb34d5f1347aa9

Еще никто не оставлял запись к записи скачать торрент Donnie & Joe Emerson - Dreamin Wild - 1979 Remastered 2012, FLAC . Будь первым!

!Обратная связь