Скачать через торрент музыку Jimi Hendrix - Woke Up This Morning and Found Myself Dead - 2001, FLAC бесплатно без регистрации torrent

Если у вас наблюдаются проблемы со скриншотами, переходом по ссылками, скачиванием торрентов - проблемы в блокировщике рекламы AdBlock. #хорошегоДня!


Статистика раздачи
Размер:  282 MB   |    Зарегистрирован:  5 лет 1 месяц   |    .torrent скачан:  20 раз   |   
Раздают:  1  
   
Загрузка...
 
Автор Сообщение

Galfimbul

avatar Galfimbul


Jimi Hendrix / Woke Up This Morning and Found Myself Dead

Жанр: Psychedelic Rock
Год издания: 2001
Страна: USA
Аудиокодек: FLAC (*.flac)
Тип рипа: tracks+.cue
Битрейт аудио: lossless
Продолжительность: 00:53:59
Источник (релизер): вата, satchified
Наличие сканов в содержимом раздачи: нет
Треклист:
01 - Red House
02 - Voices
03 - Blues, Blues
04 - Uranus Rock
05 - Peoples, Peoples
06 - Woke Up This Morning
07 - Wow Eeh (Tomorrow Never Knows)
08 - Gonna Take a Lot
09 - Lime Lime Medley (a. Outside Woman Blues. B. Sunshine Of Your Love)
  
Exact Audio Copy V0.99 prebeta 5 from 4. May 2009

EAC extraction logfile from 17. August 2009, 8:46

Jimi Hendrix / Woke up this morning and found myself dead

Used drive : TSSTcorpCDDVDW TS-L633A Adapter: 2 ID: 0

Read mode : SecureUtilize accurate stream : YesDefeat audio cache : YesMake use of C2 pointers : No

Read offset correction : 6Overread into Lead-In and Lead-Out : NoFill up missing offset samples with silence : YesDelete leading and trailing silent blocks : NoNull samples used in CRC calculations : NoUsed interface : Native Win32 interface for Win NT & 2000Gap handling : Appended to previous track

Used output format : User Defined EncoderSelected bitrate : 320 kBit/sQuality : HighAdd ID3 tag : NoCommand line compressor : C:\Program Files\Exact Audio Copy\FLAC\FLAC.EXEAdditional command line options : -V -8 -T "artist=%a" -T "title=%t" -T "album=%g" -T "date=%y" -T "tracknumber=%n" -T "genre=%m" %s

TOC of the extracted CD

Track | Start | Length | Start sector | End sector --------------------------------------------------------- 1 | 0:00.00 | 8:04.74 | 0 | 36373 2 | 8:04.74 | 5:12.39 | 36374 | 59812 3 | 13:17.38 | 6:05.36 | 59813 | 87223 4 | 19:22.74 | 6:36.28 | 87224 | 116951 5 | 25:59.27 | 7:43.29 | 116952 | 151705 6 | 33:42.56 | 8:01.39 | 151706 | 187819 7 | 41:44.20 | 3:08.53 | 187820 | 201972 8 | 44:52.73 | 2:33.03 | 201973 | 213450 9 | 47:26.01 | 6:13.02 | 213451 | 241427

Track 1

Filename C:\Jimi Hendrix - - Woke up this morning and found myself dead\01 - Red House.wav

Pre-gap length 0:00:02.00

Peak level 99.8 % Track quality 100.0 % Test CRC E707F593 Copy CRC E707F593 Accurately ripped (confidence 2) [90FCAAED] Copy OK

Track 2

Filename C:\Jimi Hendrix - - Woke up this morning and found myself dead\02 - Voices.wav

Peak level 99.8 % Track quality 100.0 % Test CRC 22FD7192 Copy CRC 22FD7192 Accurately ripped (confidence 2) [34BA36A0] Copy OK

Track 3

Filename C:\Jimi Hendrix - - Woke up this morning and found myself dead\03 - Blues, Blues.wav

Pre-gap length 0:05:12.39

Peak level 99.8 % Track quality 100.0 % Test CRC 8946A4BF Copy CRC 8946A4BF Accurately ripped (confidence 2) [9E4F7913] Copy OK

Track 4

Filename C:\Jimi Hendrix - - Woke up this morning and found myself dead\04 - Uranus Rock.wav

Pre-gap length 0:11:18.00

Peak level 99.8 % Track quality 100.0 % Test CRC 94FEFAA9 Copy CRC 94FEFAA9 Accurately ripped (confidence 2) [E63A9085] Copy OK

Track 5

Filename C:\Jimi Hendrix - - Woke up this morning and found myself dead\05 - Peoples, Peoples.wav

Pre-gap length 0:17:54.28

Peak level 99.8 % Track quality 100.0 % Test CRC 00F9DC87 Copy CRC 00F9DC87 Accurately ripped (confidence 2) [D802E8A1] Copy OK

Track 6

Filename C:\Jimi Hendrix - - Woke up this morning and found myself dead\06 - Woke Up This Morning.wav

Pre-gap length 0:25:37.57

Peak level 99.8 % Track quality 99.9 % Test CRC 6AA80DF1 Copy CRC 6AA80DF1 Accurately ripped (confidence 2) [720BBF5D] Copy OK

Track 7

Filename C:\Jimi Hendrix - - Woke up this morning and found myself dead\07 - Wow Eeh (Tomorrow Never Knows).wav

Pre-gap length 0:33:39.21

Peak level 99.8 % Track quality 100.0 % Test CRC BB5B26E9 Copy CRC BB5B26E9 Accurately ripped (confidence 2) [A7CADA06] Copy OK

Track 8

Filename C:\Jimi Hendrix - - Woke up this morning and found myself dead\08 - Gonna Take a Lot.wav

Pre-gap length 0:36:47.74

Peak level 99.8 % Track quality 100.0 % Test CRC CA7C8252 Copy CRC CA7C8252 Accurately ripped (confidence 2) [64F38FD1] Copy OK

Track 9

Filename C:\Jimi Hendrix - - Woke up this morning and found myself dead\09 - Lime Lime Medley (a. Outside Woman Blues. B. Sunshine Of Your Love).wav

Pre-gap length 0:39:21.02

Peak level 99.8 % Track quality 100.0 % Test CRC 21B92DA6 Copy CRC 21B92DA6 Accurately ripped (confidence 2) [0DF93770] Copy OK

All tracks accurately ripped

No errors occurred

End of status report
  
REM DISCID 860C9309REM COMMENT "ExactAudioCopy v0.99pb5"PERFORMER "Jimi Hendrix"TITLE "Woke up this morning and found myself dead"FILE "01 - Red House.wav" WAVE TRACK 01 AUDIO TITLE "Red House" PERFORMER "Jimi Hendrix" INDEX 01 00:00:00FILE "02 - Voices.wav" WAVE TRACK 02 AUDIO TITLE "Voices" PERFORMER "Jimi Hendrix" INDEX 01 00:00:00 TRACK 03 AUDIO TITLE "Blues, Blues" PERFORMER "Jimi Hendrix" INDEX 00 00:00:00FILE "03 - Blues, Blues.wav" WAVE INDEX 01 00:00:00 TRACK 04 AUDIO TITLE "Uranus Rock" PERFORMER "Jimi Hendrix" INDEX 00 05:48:36FILE "04 - Uranus Rock.wav" WAVE INDEX 01 00:00:00 TRACK 05 AUDIO TITLE "Peoples, Peoples" PERFORMER "Jimi Hendrix" INDEX 00 99:42:00FILE "05 - Peoples, Peoples.wav" WAVE INDEX 01 00:00:00 TRACK 06 AUDIO TITLE "Woke Up This Morning" PERFORMER "Jimi Hendrix" INDEX 00 93:06:47FILE "06 - Woke Up This Morning.wav" WAVE INDEX 01 00:00:00 TRACK 07 AUDIO TITLE "Wow Eeh (Tomorrow Never Knows)" PERFORMER "Jimi Hendrix" INDEX 00 85:23:18FILE "07 - Wow Eeh (Tomorrow Never Knows).wav" WAVE INDEX 01 00:00:00 TRACK 08 AUDIO TITLE "Gonna Take a Lot" PERFORMER "Jimi Hendrix" INDEX 00 77:21:54FILE "08 - Gonna Take a Lot.wav" WAVE INDEX 01 00:00:00 TRACK 09 AUDIO TITLE "Lime Lime Medley (a. Outside Woman Blues. B. Sunshine Of Your Love)" PERFORMER "Jimi Hendrix" INDEX 00 74:13:01FILE "09 - Lime Lime Medley (a. Outside Woman Blues. B. Sunshine Of Your Love).wav" WAVE INDEX 01 00:00:00
This album of music was once available on red vinyl under the title JIMI HENDRIX HIGH, LIVE AND DIRTY. The record label mistakenly thought Jimi was singing the x-rated lyrics. In fact this recording was of a night club jam session where Jimi Hendrix teamed up with a wasted Jim Morrison of the Doors, who is singing the raunchy "lyrics". There are cover tunes of Cream, and Johnny Winter is also one of the celebrities included.


Трекер:  [ 11-Июл-2012 16:22 ]

  

Скачать .torrent

Размер .torrent файла 12 KB


Размер: 282 MB
Хэш (hash) релиза: a72a0e5d87cbf79e193a10a29358a48ec3f2105e

Еще никто не оставлял запись к записи скачать торрент Jimi Hendrix - Woke Up This Morning and Found Myself Dead - 2001, FLAC . Будь первым!

!Обратная связь