Скачать через торрент музыку Jimi Hendrix - Woke Up This Morning and Found Myself Dead - Live in NY - 1998, FLAC бесплатно без регистрации torrent

Если у вас наблюдаются проблемы со скриншотами, переходом по ссылками, скачиванием торрентов - проблемы в блокировщике рекламы AdBlock. #хорошегоДня!


Статистика раздачи
Размер:  305 MB   |    Зарегистрирован:  5 лет 1 месяц   |    .torrent скачан:  14 раз   |   
Раздают:  1  
   
Загрузка...
 
Автор Сообщение

Galfimbul

avatar Galfimbul


Jimi Hendrix / Woke Up This Morning and Found Myself Dead - Live in NY

Жанр: Psychedelic Rock
Страна-производитель диска: USA
Год издания: 1998
Страна: USA
Аудиокодек: FLAC (*.flac)
Тип рипа: tracks+.cue
Битрейт аудио: lossless
Продолжительность: 00:53:34
Источник (релизер): вата, eMininu
Наличие сканов в содержимом раздачи: нет
Треклист:
01 - Red House
02 - Wake Up This Morning and You Find Yourself Dead
03 - Bleeding Heart
04 - Morrison's Lament
05 - Tomorrow Never Knows
06 - Uranus Rock
07 - Outside Woman Blues
08 - Sunshine of Your Love
  
EAC extraction logfile from 1. August 2009, 11:44 for CDJimi Hendrix / Woke Up This Morning and Found Myself Dead

Used drive : ATAPI DVD A DH20A3S Adapter: 3 ID: 1Read mode : Secure with NO C2, accurate stream, disable cacheRead offset correction : 6Overread into Lead-In and Lead-Out : No

Used output format : Internal WAV Routines 44.100 Hz; 16 Bit; Stereo

Other options : Fill up missing offset samples with silence : Yes Delete leading and trailing silent blocks : No Installed external ASPI interface

Track 1 Filename D:\Woke Up This Morning and Found Myself Dead\01 - Red House.wav

Pre-gap length 0:00:02.32

Peak level 99.2 % Track quality 99.9 % Test CRC 1DCF629D Copy CRC 1DCF629D Copy OK

Track 2 Filename D:\Woke Up This Morning and Found Myself Dead\02 - Wake Up This Morning and You Find Yourself Dead.wav

Pre-gap length 0:00:01.67

Peak level 99.2 % Track quality 99.9 % Test CRC 1F6B07C7 Copy CRC 1F6B07C7 Copy OK

Track 3 Filename D:\Woke Up This Morning and Found Myself Dead\03 - Bleeding Heart.wav

Pre-gap length 0:00:03.05

Peak level 99.2 % Track quality 99.9 % Test CRC 05C0B5D4 Copy CRC 05C0B5D4 Copy OK

Track 4 Filename D:\Woke Up This Morning and Found Myself Dead\04 - Morrison's Lament.wav

Pre-gap length 0:00:03.12

Peak level 99.2 % Track quality 99.9 % Test CRC 498DC9C2 Copy CRC 498DC9C2 Copy OK

Track 5 Filename D:\Woke Up This Morning and Found Myself Dead\05 - Tomorrow Never Knows.wav

Peak level 80.4 % Track quality 100.0 % Test CRC B2AFFA2C Copy CRC B2AFFA2C Copy OK

Track 6 Filename D:\Woke Up This Morning and Found Myself Dead\06 - Uranus Rock.wav

Peak level 81.1 % Track quality 99.9 % Test CRC 678032DC Copy CRC 678032DC Copy OK

Track 7 Filename D:\Woke Up This Morning and Found Myself Dead\07 - Outside Woman Blues.wav

Pre-gap length 0:00:03.13

Peak level 95.3 % Track quality 100.0 % Test CRC C4AF78F1 Copy CRC C4AF78F1 Copy OK

Track 8 Filename D:\Woke Up This Morning and Found Myself Dead\08 - Sunshine of Your Love.wav

Peak level 80.7 % Track quality 100.0 % Test CRC A84530B5 Copy CRC A84530B5 Copy OK

No errors occured

End of status report
  
REM GENRE RockREM DATE 1968REM DISCID 640C9A08REM COMMENT "ExactAudioCopy v0.95b4"PERFORMER "Jimi Hendrix"TITLE "Woke Up This Morning and Found Myself Dead"FILE "01 - Red House.flac" WAVE TRACK 01 AUDIO TITLE "Red House" PERFORMER "Jimi Hendrix" PREGAP 00:00:32 INDEX 01 00:00:00FILE "02 - Wake Up This Morning and You Find Yourself Dead.flac" WAVE TRACK 02 AUDIO TITLE "Wake Up This Morning and You Find Yourself Dead" PERFORMER "Jimi Hendrix" PREGAP 00:01:67 INDEX 01 00:00:00FILE "03 - Bleeding Heart.flac" WAVE TRACK 03 AUDIO TITLE "Bleeding Heart" PERFORMER "Jimi Hendrix" PREGAP 00:03:05 INDEX 01 00:00:00FILE "04 - Morrison's Lament.flac" WAVE TRACK 04 AUDIO TITLE "Morrison's Lament" PERFORMER "Jimi Hendrix" PREGAP 00:03:12 INDEX 01 00:00:00FILE "05 - Tomorrow Never Knows.flac" WAVE TRACK 05 AUDIO TITLE "Tomorrow Never Knows" PERFORMER "Jimi Hendrix" INDEX 01 00:00:00FILE "06 - Uranus Rock.flac" WAVE TRACK 06 AUDIO TITLE "Uranus Rock" PERFORMER "Jimi Hendrix" INDEX 01 00:00:00FILE "07 - Outside Woman Blues.flac" WAVE TRACK 07 AUDIO TITLE "Outside Woman Blues" PERFORMER "Jimi Hendrix" PREGAP 00:03:13 INDEX 01 00:00:00FILE "08 - Sunshine of Your Love.flac" WAVE TRACK 08 AUDIO TITLE "Sunshine of Your Love" PERFORMER "Jimi Hendrix" INDEX 01 00:00:00


Трекер:  [ 11-Июл-2012 16:22 ]

  

Скачать .torrent

Размер .torrent файла 13 KB


Размер: 305 MB
Хэш (hash) релиза: 203e0e5df6c4b4e858438e78a279774df2771d33

Еще никто не оставлял запись к записи скачать торрент Jimi Hendrix - Woke Up This Morning and Found Myself Dead - Live in NY - 1998, FLAC . Будь первым!

!Обратная связь