Скачать через торрент музыку VA - Various Artists - Remasterpieces - 1994, FLAC бесплатно без регистрации torrent

Если у вас наблюдаются проблемы со скриншотами, переходом по ссылками, скачиванием торрентов - проблемы в блокировщике рекламы AdBlock. #хорошегоДня!


Статистика раздачи
Размер:  392 MB   |    Зарегистрирован:  5 лет 1 месяц   |    .torrent скачан:  7 раз   |   
Раздают:  1  
   
Загрузка...
 
Автор Сообщение

Galfimbul

avatar Galfimbul


Various Artists / Remasterpieces

Жанр: Rock
Страна-производитель диска: USA
Год издания: 1994
Издатель (лейбл): Atlantic Records
Номер по каталогу: PRCD 6012-2
Аудиокодек: FLAC (*.flac)
Тип рипа: tracks+.cue
Битрейт аудио: lossless
Продолжительность: 01:00:01
Источник (релизер): artmuss
Наличие сканов в содержимом раздачи: да
Треклист:
01. Yes — Roundabout
02. Crosby, Stills, Nash & Young — Helpless
03. Bad Company — Feel Like Makin' Love
04. AC/DC — Highway To Hell
05. Led Zeppelin — Rock And Roll
06. Crosby, Stills & Nas — Suite: Judy Blue Eyes
07. Genesis — Turn It On Again
08. Yes — Going For The One
09. AC/DC — You Shook Me All Night Long
10. Bad Company — Can't Get Enough
11. Genesis — The Lamb Lies Down On Broadway
12. Led Zeppelin — All My Love
  
Exact Audio Copy V1.0 beta 3 from 29. August 2011

EAC extraction logfile from 24. June 2012, 16:21

Various Artists / Remasterpieces

Used drive : PLEXTOR CD-R PX-W1610A Adapter: 3 ID: 1

Read mode : SecureUtilize accurate stream : YesDefeat audio cache : YesMake use of C2 pointers : No

Read offset correction : 99Overread into Lead-In and Lead-Out : YesFill up missing offset samples with silence : YesDelete leading and trailing silent blocks : NoNull samples used in CRC calculations : YesUsed interface : Installed external ASPI interfaceGap handling : Appended to previous track

Used output format : User Defined EncoderSelected bitrate : 1024 kBit/sQuality : HighAdd ID3 tag : NoCommand line compressor : C:\Program Files (x86)\Exact Audio Copy\FLAC\FLAC.EXEAdditional command line options : -8 -V -T "ARTIST=%artist%" -T "TITLE=%title%" -T "ALBUM=%albumtitle%" -T "DATE=%year%" -T "TRACKNUMBER=%tracknr%" -T "GENRE=%genre%" -T "PERFORMER=%albuminterpret%" -T "COMPOSER=%composer%" %haslyrics%--tag-from-file=LYRICS="%lyricsfile%"%haslyrics% -T "ALBUMARTIST=%albumartist%" -T "DISCNUMBER=%cdnumber%" -T "TOTALDISCS=%totalcds%" -T "TOTALTRACKS=%numtracks%" -T "COMMENT=%comment%" %source% -o %dest%

TOC of the extracted CD

Track | Start | Length | Start sector | End sector --------------------------------------------------------- 1 | 0:00.32 | 8:32.05 | 32 | 38436 2 | 8:32.37 | 3:36.08 | 38437 | 54644 3 | 12:08.45 | 5:13.32 | 54645 | 78151 4 | 17:22.02 | 3:31.25 | 78152 | 94001 5 | 20:53.27 | 3:42.73 | 94002 | 110724 6 | 24:36.25 | 7:28.47 | 110725 | 144371 7 | 32:04.72 | 3:48.65 | 144372 | 161536 8 | 35:53.62 | 5:33.40 | 161537 | 186551 9 | 41:27.27 | 3:34.13 | 186552 | 202614 10 | 45:01.40 | 4:16.62 | 202615 | 221876 11 | 49:18.27 | 4:51.55 | 221877 | 243756 12 | 54:10.07 | 5:51.40 | 243757 | 270121

Track 1

Filename D:\Ripped Music\Remasterpieces\01 - Yes - Roundabout.wav

Pre-gap length 0:00:02.32

Peak level 98.8 % Extraction speed 2.3 X Track quality 100.0 % Test CRC C0F36005 Copy CRC C0F36005 Accurately ripped (confidence 2) [0E2E6F33] (AR v1) Copy OK

Track 2

Filename D:\Ripped Music\Remasterpieces\02 - Crosby, Stills, Nash & Young - Helpless.wav

Pre-gap length 0:00:01.35

Peak level 73.2 % Extraction speed 1.8 X Track quality 99.9 % Test CRC 605ABED3 Copy CRC 605ABED3 Track not present in AccurateRip database Copy OK

Track 3

Filename D:\Ripped Music\Remasterpieces\03 - Bad Company - Feel Like Makin' Love.wav

Pre-gap length 0:00:00.21

Peak level 74.9 % Extraction speed 2.2 X Track quality 100.0 % Test CRC D2CE6D7B Copy CRC D2CE6D7B Accurately ripped (confidence 2) [29506746] (AR v1) Copy OK

Track 4

Filename D:\Ripped Music\Remasterpieces\04 - AC,DC - Highway To Hell.wav

Pre-gap length 0:00:00.15

Peak level 83.0 % Extraction speed 2.1 X Track quality 100.0 % Test CRC 23491C4D Copy CRC 23491C4D Accurately ripped (confidence 2) [1F7DED00] (AR v1) Copy OK

Track 5

Filename D:\Ripped Music\Remasterpieces\05 - Led Zeppelin - Rock And Roll.wav

Pre-gap length 0:00:03.18

Peak level 89.1 % Extraction speed 2.1 X Track quality 100.0 % Test CRC B7AF592E Copy CRC B7AF592E Track not present in AccurateRip database Copy OK

Track 6

Filename D:\Ripped Music\Remasterpieces\06 - Crosby, Stills & Nash - Suite- Judy Blue Eyes.wav

Pre-gap length 0:00:02.71

Peak level 97.7 % Extraction speed 2.2 X Track quality 100.0 % Test CRC AA90C326 Copy CRC AA90C326 Track not present in AccurateRip database Copy OK

Track 7

Filename D:\Ripped Music\Remasterpieces\07 - Genesis - Turn It On Again.wav

Pre-gap length 0:00:02.58

Peak level 98.8 % Extraction speed 2.1 X Track quality 100.0 % Test CRC 87B1796C Copy CRC 87B1796C Accurately ripped (confidence 2) [224871EF] (AR v1) Copy OK

Track 8

Filename D:\Ripped Music\Remasterpieces\08 - Yes - Going For The One.wav

Peak level 84.1 % Extraction speed 2.2 X Track quality 100.0 % Test CRC 074EC74D Copy CRC 074EC74D Track not present in AccurateRip database Copy OK

Track 9

Filename D:\Ripped Music\Remasterpieces\09 - AC,DC - You Shook Me All Night Long.wav

Peak level 70.6 % Extraction speed 2.1 X Track quality 100.0 % Test CRC A2BA5BF6 Copy CRC A2BA5BF6 Track not present in AccurateRip database Copy OK

Track 10

Filename D:\Ripped Music\Remasterpieces\10 - Bad Company - Can't Get Enough.wav

Pre-gap length 0:00:03.43

Peak level 70.7 % Extraction speed 2.1 X Track quality 100.0 % Test CRC 3CA345C5 Copy CRC 3CA345C5 Track not present in AccurateRip database Copy OK

Track 11

Filename D:\Ripped Music\Remasterpieces\11 - Genesis - The Lamb Lies Down On Broadway.wav

Pre-gap length 0:00:02.45

Peak level 96.7 % Extraction speed 1.2 X Track quality 99.8 % Test CRC 78C3423C Copy CRC 78C3423C Track not present in AccurateRip database Copy OK

Track 12

Filename D:\Ripped Music\Remasterpieces\12 - Led Zeppelin - All My Love.wav

Pre-gap length 0:00:01.68

Peak level 84.1 % Extraction speed 2.4 X Track quality 100.0 % Test CRC 218A65AB Copy CRC 218A65AB Track not present in AccurateRip database Copy OK

4 track(s) accurately ripped 8 track(s) not present in the AccurateRip database

Some tracks could not be verified as accurate

No errors occurred

End of status report

==== Log checksum 16275D2DB09ED9044F5A364FBEA1D08523594E8AEA07F33F1C54D0174D09F06A ====
  
REM GENRE "Classic Rock"REM DATE 1994REM DISCID 9F0E110CREM COMMENT "ExactAudioCopy v1.0b3"PERFORMER "Various Artists"TITLE "Remasterpieces"FILE "01 - Yes - Roundabout.wav" WAVE TRACK 01 AUDIO TITLE "Roundabout" PERFORMER "Yes" PREGAP 00:00:32 INDEX 01 00:00:00 TRACK 02 AUDIO TITLE "Helpless" PERFORMER "Crosby, Stills, Nash & Young" INDEX 00 08:30:45FILE "02 - Crosby, Stills, Nash & Young - Helpless.wav" WAVE INDEX 01 00:00:00 TRACK 03 AUDIO TITLE "Feel Like Makin' Love" PERFORMER "Bad Company" INDEX 00 03:35:62FILE "03 - Bad Company - Feel Like Makin' Love.wav" WAVE INDEX 01 00:00:00 TRACK 04 AUDIO TITLE "Highway To Hell" PERFORMER "AC/DC" INDEX 00 05:13:17FILE "04 - AC,DC - Highway To Hell.wav" WAVE INDEX 01 00:00:00 TRACK 05 AUDIO TITLE "Rock And Roll" PERFORMER "Led Zeppelin" INDEX 00 03:28:07FILE "05 - Led Zeppelin - Rock And Roll.wav" WAVE INDEX 01 00:00:00 TRACK 06 AUDIO TITLE "Suite: Judy Blue Eyes" PERFORMER "Crosby, Stills & Nash" INDEX 00 03:40:02FILE "06 - Crosby, Stills & Nash - Suite- Judy Blue Eyes.wav" WAVE INDEX 01 00:00:00 TRACK 07 AUDIO TITLE "Turn It On Again" PERFORMER "Genesis" INDEX 00 07:25:64FILE "07 - Genesis - Turn It On Again.wav" WAVE INDEX 01 00:00:00FILE "08 - Yes - Going For The One.wav" WAVE TRACK 08 AUDIO TITLE "Going For The One" PERFORMER "Yes" INDEX 01 00:00:00FILE "09 - AC,DC - You Shook Me All Night Long.wav" WAVE TRACK 09 AUDIO TITLE "You Shook Me All Night Long" PERFORMER "AC/DC" INDEX 01 00:00:00 TRACK 10 AUDIO TITLE "Can't Get Enough" PERFORMER "Bad Company" INDEX 00 03:30:45FILE "10 - Bad Company - Can't Get Enough.wav" WAVE INDEX 01 00:00:00 TRACK 11 AUDIO TITLE "The Lamb Lies Down On Broadway" PERFORMER "Genesis" INDEX 00 04:14:17FILE "11 - Genesis - The Lamb Lies Down On Broadway.wav" WAVE INDEX 01 00:00:00 TRACK 12 AUDIO TITLE "All My Love" PERFORMER "Led Zeppelin" INDEX 00 04:49:62FILE "12 - Led Zeppelin - All My Love.wav" WAVE INDEX 01 00:00:00


Трекер:  [ 11-Июл-2012 16:22 ]

  

Скачать .torrent

Размер .torrent файла 17 KB


Размер: 392 MB
Хэш (hash) релиза: c6f09e72a3c04dea7a6d85b83735a428f1854c0a

Еще никто не оставлял запись к записи скачать торрент VA - Various Artists - Remasterpieces - 1994, FLAC . Будь первым!

!Обратная связь