Скачать через торрент музыку Jerry Garcia - Legion of Mary бесплатно без регистрации torrent

Если у вас наблюдаются проблемы со скриншотами, переходом по ссылками, скачиванием торрентов - проблемы в блокировщике рекламы AdBlock. #хорошегоДня!


Статистика раздачи
Размер:  1 GB   |    Зарегистрирован:  5 лет 1 месяц   |    .torrent скачан:  20 раз   |   
Раздают:  1  
   
Загрузка...
 
Автор Сообщение

Umakiro

avatar Umakiro


Jerry Garcia / Legion of Mary (1974-1975) Live Collection

Жанр: Rock,Blues Rock,Psychedelic Rock
Год издания: 2005
Аудиокодек: FLAC (*.flac)
Тип рипа: image+.cue
Битрейт аудио: lossless
Продолжительность: 79:08+79:11
Источник (релизер): my disc
Наличие сканов в содержимом раздачи: да
Треклист:
01. Tough Mama [0:09:41.49]
02. That's A Touch I Like [0:11:53.51]
03. I Second That Emotion [0:14:01.39]
04. Since I Lost My Baby [0:11:56.01]
05. Tore Up Over You [0:11:49.28]
06. The night They Drove Old Dixie Down [0:08:29.35]
07. Talkin' 'bout You [0:11:16.26]

CD-2:

01. I'll Take A Melody [0:11:27.15]
02. Let It Rock [0:13:53.66]
03. Neighbor,Neighbor [0:11:55.52]
04. Money Honey [0:10:03.39]
05. Last Train From Poor Valley [0:07:53.55]
06. Mystery Train [0:13:01.48]
07. How Sweet It Is To Be Loved By You [0:10:55.36]
  
Exact Audio Copy V0.99 prebeta 4 from 23. January 2008

Отчёт EAC об извлечении, выполненном 5. июля 2012, 18:49

Jerry Garcia / Legion Of Mary

Дисковод: ASUS DRW-1814BL Adapter: 1 ID: 0

Режим чтения : ДостоверностьИспользование точного потока : ДаОтключение кэша аудио : ДаИспользование указателей C2 : Нет

Коррекция смещения при чтении : 6Способность читать области Lead-in и Lead-out : НетЗаполнение пропущенных сэмплов тишиной : ДаУдаление блоков с тишиной в начале и конце : НетПри вычислениях CRC использовались нулевые сэмплы : ДаИнтерфейс : Установленный внешний ASPI-интерфейс

Выходной формат : Пользовательский кодировщикВыбранный битрейт : 1024 kBit/sКачество : ВысокийДобавление ID3-тэга : НетУтилита сжатия : C:\Program Files\Exact Audio Copy\FLAC\FLAC.EXEДополнительные параметры : -6 -V -T "ARTIST=%a" -T "TITLE=%t" -T "ALBUM=%g" -T "DATE=%y" -T "TRACKNUMBER=%n" -T "GENRE=%m" -T "COMMENT=%e" %s -o %d

TOC извлечённого CD

Трек | Старт | Длительность | Начальный сектор | Конечный сектор --------------------------------------------------------------------- 1 | 0:00.00 | 9:41.49 | 0 | 43623 2 | 9:41.49 | 11:53.51 | 43624 | 97149 3 | 21:35.25 | 14:01.39 | 97150 | 160263 4 | 35:36.64 | 11:56.01 | 160264 | 213964 5 | 47:32.65 | 11:49.28 | 213965 | 267167 6 | 59:22.18 | 8:29.35 | 267168 | 305377 7 | 67:51.53 | 11:16.26 | 305378 | 356103

Характеристики диапазона извлечения и сообщения об ошибках

Выбранный диапазон

Имя файла D:\loSSleSS\Jerry Garcia'74-75\Jerry Garcia - Legion Of Mary.wav

Пиковый уровень 98.8 % Качество диапазона 100.0 % CRC теста 4082154E CRC копии 4082154E Копирование... OK

Ошибок не произошло

AccurateRip: сводка

Трек 1 точность не определена (достоверность 12) [5DF4C274], AccurateRip вернул [976E139B]Трек 2 точность не определена (достоверность 12) [D90CE931], AccurateRip вернул [7C8D83F1]Трек 3 точность не определена (достоверность 12) [818807AD], AccurateRip вернул [85C74CD2]Трек 4 точность не определена (достоверность 11) [A2FD7513], AccurateRip вернул [AA00DC01]Трек 5 точность не определена (достоверность 11) [461C86C4], AccurateRip вернул [1620B56E]Трек 6 точность не определена (достоверность 12) [65EDFABA], AccurateRip вернул [BF917255]Трек 7 точность не определена (достоверность 9) [D92BDCFA], AccurateRip вернул [34653C5F]

Ни один трек не прошёл проверки на точностьВ вашей базе может быть иной вариант штамповки диска

Конец отчёта

Disc-2:
Exact Audio Copy V0.99 prebeta 4 from 23. January 2008

Отчёт EAC об извлечении, выполненном 5. июля 2012, 19:54

Jerry Garcia / Legion Of Mary-2

Дисковод: ASUS DRW-1814BL Adapter: 1 ID: 0

Режим чтения : Достоверность
Использование точного потока : Да
Отключение кэша аудио : Да
Использование указателей C2 : Нет

Коррекция смещения при чтении : 6
Способность читать области Lead-in и Lead-out : Нет
Заполнение пропущенных сэмплов тишиной : Да
Удаление блоков с тишиной в начале и конце : Нет
При вычислениях CRC использовались нулевые сэмплы : Да
Интерфейс : Установленный внешний ASPI-интерфейс

Выходной формат : Пользовательский кодировщик
Выбранный битрейт : 1024 kBit/s
Качество : Высокий
Добавление ID3-тэга : Нет
Утилита сжатия : C:\Program Files\Exact Audio Copy\FLAC\FLAC.EXE
Дополнительные параметры : -6 -V -T "ARTIST=%a" -T "TITLE=%t" -T "ALBUM=%g" -T "DATE=%y" -T "TRACKNUMBER=%n" -T "GENRE=%m" -T "COMMENT=%e" %s -o %d

TOC извлечённого CD

Трек | Старт | Длительность | Начальный сектор | Конечный сектор
---------------------------------------------------------------------
1 | 0:00.00 | 11:27.15 | 0 | 51539
2 | 11:27.15 | 13:53.66 | 51540 | 114080
3 | 25:21.06 | 11:55.52 | 114081 | 167757
4 | 37:16.58 | 10:03.39 | 167758 | 213021
5 | 47:20.22 | 7:53.55 | 213022 | 248551
6 | 55:14.02 | 13:01.48 | 248552 | 307174
7 | 68:15.50 | 10:55.36 | 307175 | 356335

Характеристики диапазона извлечения и сообщения об ошибках

Выбранный диапазон

Имя файла D:\loSSleSS\Jerry Garcia'74-75\Jerry Garcia - Legion Of Mary-2.wav

Пиковый уровень 98.8 %
Качество диапазона 99.9 %
CRC теста 576FAE1D
CRC копии 576FAE1D
Копирование... OK

Ошибок не произошло

AccurateRip: сводка

Трек 1 точность не определена (достоверность 12) [4DBA990C], AccurateRip вернул [B89BB041]
Трек 2 точность не определена (достоверность 13) [DED5375A], AccurateRip вернул [699E36C4]
Трек 3 точность не определена (достоверность 13) [DFFFC716], AccurateRip вернул [4AB29612]
Трек 4 точность не определена (достоверность 13) [36107344], AccurateRip вернул [BDFB073F]
Трек 5 точность не определена (достоверность 13) [13E929B6], AccurateRip вернул [5DC9B484]
Трек 6 точность не определена (достоверность 13) [B3B2630F], AccurateRip вернул [D46E2CA5]
Трек 7 точность не определена (достоверность 12) [682CBCE9], AccurateRip вернул [883C403F]

Ни один трек не прошёл проверки на точность
В вашей базе может быть иной вариант штамповки диска

Конец отчёта
Дже́рри Гарси́я (англ. Jerry Garcia, полное имя — Джером Джон Гарсиа; 1 августа 1942 — 9 августа 1995) — американский музыкант, гитарист группы «Grateful Dead», основоположник психоделического рока на западном побережье США.Стать виртуозом Гарсия смог, даже несмотря на свою искалеченную правую руку — ещё в юности он случайно лишился двух фаланг на среднем пальце правой руки, когда колол дрова.Джерри Гарсия родился в Сан-Франциско, а играть на гитаре научился, когда ему было 15 лет. В 16 лет Гарсия закончил школу, после чего недолгое время служил в армии. Демобилизовавшись, он поселился в Пало-Альто, где познакомился с будущим автором текстов песен группы The Grateful Dead, Робертом Хантером. Тогда же Гарсия купил себе банджо и начал играть в местных ансамблях кантри. В 1965 году один из этих ансамблей, Mother McCree’s Uptown Jug Champions, преобразовался в рок-группу The Grateful Dead, а сам Гарсия перешёл на электрогитару. Манера игры Гарсии на электрогитаре вобрала в себя элементы блюграсс и Чака Берри, кантри и современного джаза, что сделало её совершенно уникальной и неповторимой. В первые годы работы с The Grateful Dead Гарсия играл на гитаре Guild, а затем перешёл на Gibson плюс к этому иногда использовал и Fender Stratocaster.С 1964 по 1966 годы являлся участником коммуны «Весёлые проказники». Большинство акций «Весёлых проказников» происходило с участием The Grateful Dead.В 1969 году выступал вместе с группой на фестивале в Вудстоке, однако группа не имела никакого успеха. Начиная с 1970-х музыкант стал играть на гитарах, сделанных на заказ, долгое время он пользовался услугами мастера по имени Дуг Ирвин. На одной из заказных гитар, которая получила имя «Tiger», музыкант играл целых 11 лет. В 1990-х годах Гарсия успел поиграть на гитарах другого мастера, Стивена Крайпа.В 1981 году женился на своей давней знакомой по коммуне «Весёлые проказники» — Кэролин Адамс (англ. Carolyn Adams), также известной как «Горянка» (англ. Mountain Girl). Данный брак продлился до 1994 года, однако Джерри и Кэролин сохраняли дружеские отношения вплоть до его смерти.Карьера The Grateful Dead продолжалась очень долго и прервалась лишь в 1995 году, когда Джерри Гарсия скончался от сердечного приступа в одной из клиник во время реабилитационного периода, который музыкант проходил после лечения от наркотической зависимости. Согласно желанию покойного прах Гарсии был развеян над Тихим океаном.Вскоре после смерти в нью-йоркские универмаги Bloomingdales и Macy's хлынули покупатели за галстуками и шарфами, дизайнером которых был гитарист.
Jerry Garcia:vocals,guitar
Merl Saunders:keyboards,vocals
John Kahn:bass
Ron Tutt:drums
Martin Fierro:sax,flute


Трекер:  [ 06-Июл-2012 12:46 ]

  

Скачать .torrent

Размер .torrent файла 11 KB


Размер: 1 GB
Хэш (hash) релиза: a6d4fc92df3985532b542fc199207c7619198c37

Торренты, похожие на Jerry Garcia - Legion of Mary скачать торрент

Форум Название Автор Размер S L Добавлен
Зарубежный Rock ·· (Folk-Rock, Country, Psychedelic rock) Jerry Garcia (Jerry Garcia Band, Legion Of Mary, Old And In The Way) - Коллекция 1971-2012 (& Howard Wales, Merl Saunders, John Kahn, Bill Vitt, David Grisman, Tony Rice, 36 релизов), MP3, 192-320 kbps Galfimbul 103208978869.61 GB 0 0 1352120640

16:04

5-Ноя-12

Еще никто не оставлял запись к записи скачать торрент Jerry Garcia - Legion of Mary . Будь первым!

!Обратная связь