Скачать через торрент музыку Hardbone - This Is Rock n Roll - 2012, FLAC бесплатно без регистрации torrent

Если у вас наблюдаются проблемы со скриншотами, переходом по ссылками, скачиванием торрентов - проблемы в блокировщике рекламы AdBlock. #хорошегоДня!


Статистика раздачи
Размер:  378 MB   |    Зарегистрирован:  5 лет 1 месяц   |    .torrent скачан:  9 раз   |   
Раздают:  1  
   
Загрузка...
 
Автор Сообщение

Umakiro

avatar Umakiro


This Is Rock 'n' Roll (2012)
Жанр: Hard Rock
Страна-производитель диска: Germany
Год издания: 2012
Издатель (лейбл): Rude Records
Номер по каталогу: rude 032
Страна: Germany
Аудиокодек: FLAC (*.flac)
Тип рипа: image+.cue
Битрейт аудио: lossless
Продолжительность: 42:14
Источник (релизер): собственный рип
Наличие сканов в содержимом раздачи: да

Треклист:
1. Bottlemate - 3:00
2. Wild Nights - 3:58
3. Girls & Gasoline - 4:44
4. Grave Digger - 4:08
5. One Night Stand - 3:12
6. This Is Rock 'N' Roll - 4:25
7. Fat Cat - 4:51
8. The Only Thing - 6:57
9. Young Blood - 3:15
10. Hellevator - 3:44

AC/DC времен Бона Скотта
  
Exact Audio Copy V1.0 beta 3 from 29. August 2011

EAC extraction logfile from 5. July 2012, 20:05

Hardbone / This Is Rock'n'Roll

Used drive : SlimtypeDVD A DS8A5SH Adapter: 0 ID: 1

Read mode : SecureUtilize accurate stream : YesDefeat audio cache : YesMake use of C2 pointers : No

Read offset correction : 6Overread into Lead-In and Lead-Out : NoFill up missing offset samples with silence : YesDelete leading and trailing silent blocks : NoNull samples used in CRC calculations : YesUsed interface : Native Win32 interface for Win NT & 2000

Used output format : User Defined EncoderSelected bitrate : 320 kBit/sQuality : HighAdd ID3 tag : NoCommand line compressor : C:\Program Files (x86)\Exact Audio Copy\Flac\flac.exeAdditional command line options : -V -8 -T "Date=%year%" -T "Genre=%genre%" %source%

TOC of the extracted CD

Track | Start | Length | Start sector | End sector --------------------------------------------------------- 1 | 0:00.00 | 3:00.51 | 0 | 13550 2 | 3:00.51 | 3:58.65 | 13551 | 31465 3 | 6:59.41 | 4:44.10 | 31466 | 52775 4 | 11:43.51 | 4:08.10 | 52776 | 71385 5 | 15:51.61 | 3:12.31 | 71386 | 85816 6 | 19:04.17 | 4:25.03 | 85817 | 105694 7 | 23:29.20 | 4:51.54 | 105695 | 127573 8 | 28:20.74 | 6:57.65 | 127574 | 158913 9 | 35:18.64 | 3:15.32 | 158914 | 173570 10 | 38:34.21 | 3:44.33 | 173571 | 190403

Range status and errors

Selected range

Filename D:\My Music\Hardbone - 2012 This Is Rock'n'Roll\Hardbone - This Is Rock'n'Roll.wav

Peak level 98.8 % Extraction speed 4.4 X Range quality 100.0 % Test CRC 9794B36B Copy CRC 9794B36B Copy OK

No errors occurred

AccurateRip summary

Track 1 not present in databaseTrack 2 not present in databaseTrack 3 not present in databaseTrack 4 not present in databaseTrack 5 not present in databaseTrack 6 not present in databaseTrack 7 not present in databaseTrack 8 not present in databaseTrack 9 not present in databaseTrack 10 not present in database

None of the tracks are present in the AccurateRip database

End of status report

---- CUETools DB Plugin V2.1.3

[CTDB TOCID: YYbmO2g9wKu8MebZxGgouA9VTbw-] found, Submit result: YYbmO2g9wKu8MebZxGgouA9VTbw- has been confirmed[1e389816] (1/1) Accurately ripped

==== Log checksum B5C84815BAD69D3843CE3A3D74075CEF8E368FBCCAAF95BE5E11681C72A6E0E9 ====
Hardbone - That's Kick Ass Rock, Hamburg style. The five guys were sick of pussy music and founded the band in November 2006 to show everybody where the riff hammer was hanging at. Fat guitars with a snottering voice, impulsive drums and a bass guitar, which makes your sack dangle. No bullshit, just Rock'n'Roll. Nine Months and loads of beer, nicotine and sweat later, the first songs were ready. Till the middle of 2010 the band was called Uncut. The name had to be changed for legal reasons.
Rock N'Roll is no musical style, it is a way of life, a lifestyle! These five guys, who are completely filled with testosterone are showing the middle finger to all the people who can't or don't want to understand that! The title of the album comprises everything that can be said about HARDBONE: This Is Rock N'Roll!!!
Tim Dammann - Vocals
Sebastian Kranke - Lead Guitar
Tommy Lindemann - Rhythm Guitar
Wolfgang Pohl - Bass
John Kölln - Drums


Трекер:  [ 06-Июл-2012 12:45 ]

  

Скачать .torrent

Размер .torrent файла 16 KB


Размер: 378 MB
Хэш (hash) релиза: 71c948958ac0d51c9c720a41772687863ff3f0d2

Еще никто не оставлял запись к записи скачать торрент Hardbone - This Is Rock n Roll - 2012, FLAC . Будь первым!

!Обратная связь