Скачать через торрент музыку Cozy Powell - The Best Of - 1997, APE бесплатно без регистрации torrent

Если у вас наблюдаются проблемы со скриншотами, переходом по ссылками, скачиванием торрентов - проблемы в блокировщике рекламы AdBlock. #хорошегоДня!


Статистика раздачи
Размер:  459 MB   |    Зарегистрирован:  5 лет 1 месяц   |    .torrent скачан:  19 раз   |   
Раздают:  1  
   
Загрузка...
 
Автор Сообщение

Umakiro

avatar Umakiro


Cozy Powell / The Best Of

Жанр: Hard Rock
Страна-производитель диска: UK
Год издания: 1997
Издатель (лейбл): Polydor
Номер по каталогу: 537 724-2
Страна: UK
Аудиокодек: APE (*.ape)
Тип рипа: image+.cue
Битрейт аудио: lossless
Продолжительность: 1:13:49
Источник (релизер): Свой рип
Наличие сканов в содержимом раздачи: да
Треклист:
1. Theme One (George Martin) 3:36
2. Killer (Don Airey) 7:16
3. Sweet Poison (Max Middleton) 6:26
4. The Loner (Max Middleton) 4:52
5. Over The Top (Don Airey / Cozy Powell) 8:38
6. Cat Moves (Jan Hammer) 5:12
7. Sunset (Gary Moore) 4:32
8. Hot Rock (Jan Hammer) 4:38
9. The Blister (Gary Moore / Don Airey) 4:24
10. Up On The Downs (Mel Galley / Cozy Powell) 3:55
11. Formula One (Mel Galley / Cozy Powell) 3:21
12. Dartmoore (Gary Moore) 5:41
13. 633 Squadron (Ron Goodwin) 4:13
14. Octopuss (Cozy Powell / Colin Hodgkinson) 5:53
15. The Big Country (Jerome Moross / Monty Neff / Jack Lewis) 2:56
16. The Rattler (David Coverdale / Cozy Powell) 2:57
  
EAC extraction logfile from 5. July 2012, 19:17 for CDCozy Powell / The Best Of

Used drive : Optiarc DVD RW AD-7560S Adapter: 1 ID: 0Read mode : Secure with NO C2, accurate stream, disable cacheRead offset correction : 6Overread into Lead-In and Lead-Out : No

Used output format : Internal WAV Routines 44.100 Hz; 16 Bit; Stereo

Other options : Fill up missing offset samples with silence : Yes Delete leading and trailing silent blocks : No Native Win32 interface for Win NT & 2000

Range status and errorsSelected range Filename C:\Users\MSI\Music\Cozy Powell - The Best Of.wav

Peak level 93.9 % Range quality 99.9 % CRC 7622FCEC Copy OK

No errors occured

End of status report
  
REM DISCID DD114D10REM COMMENT "ExactAudioCopy v0.95b4"PERFORMER "Cozy Powell"TITLE "The Best Of"FILE "Cozy Powell - The Best Of.wav" WAVE TRACK 01 AUDIO TITLE "Theme One" PERFORMER "Cozy Powell" INDEX 01 00:00:00 TRACK 02 AUDIO TITLE "Killer" PERFORMER "Cozy Powell" INDEX 00 03:35:22 INDEX 01 03:37:21 TRACK 03 AUDIO TITLE "Sweet Poison" PERFORMER "Cozy Powell" INDEX 00 09:06:19 INDEX 01 09:08:18 TRACK 04 AUDIO TITLE "The Loner" PERFORMER "Cozy Powell" INDEX 00 15:31:50 INDEX 01 15:33:49 TRACK 05 AUDIO TITLE "Over The Top" PERFORMER "Cozy Powell" INDEX 00 20:22:14 INDEX 01 20:24:13 TRACK 06 AUDIO TITLE "Cat Moves" PERFORMER "Cozy Powell" INDEX 00 27:07:02 INDEX 01 27:09:01 TRACK 07 AUDIO TITLE "Sunset" PERFORMER "Cozy Powell" INDEX 00 32:19:62 INDEX 01 32:21:61 TRACK 08 AUDIO TITLE "Hot Rock" PERFORMER "Cozy Powell" INDEX 00 36:52:18 INDEX 01 36:54:17 TRACK 09 AUDIO TITLE "The Blister" PERFORMER "Cozy Powell" INDEX 00 41:30:55 INDEX 01 41:32:54 TRACK 10 AUDIO TITLE "Up On The Downs" PERFORMER "Cozy Powell" INDEX 00 45:56:67 INDEX 01 45:58:66 TRACK 11 AUDIO TITLE "Formula One" PERFORMER "Cozy Powell" INDEX 00 49:54:36 INDEX 01 49:56:35 TRACK 12 AUDIO TITLE "Dartmoore" PERFORMER "Cozy Powell" INDEX 00 53:18:70 INDEX 01 53:20:69 TRACK 13 AUDIO TITLE "633 Squadron" PERFORMER "Cozy Powell" INDEX 00 57:38:47 INDEX 01 57:40:46 TRACK 14 AUDIO TITLE "Octopuss" PERFORMER "Cozy Powell" INDEX 00 61:54:12 INDEX 01 61:56:11 TRACK 15 AUDIO TITLE "The Big Country" PERFORMER "Cozy Powell" INDEX 00 67:49:70 INDEX 01 67:51:69 TRACK 16 AUDIO TITLE "The Rattler" PERFORMER "Cozy Powell" INDEX 00 70:48:16 INDEX 01 70:50:15
  
auCDtect: CD records authenticity detector, version 0.8.2Copyright (c) 2004 Oleg Berngardt. All rights reserved.Copyright (c) 2004 Alexander Djourik. All rights reserved.

Detect mode (0..40 with 0 = most accurate): 8 (default)

Cozy Powell - The Best Of.wav: track looks like CDDA with probability 100%.
Cozy Powell – drums
Gary Moore – guitar
Clem Clempson – guitar
Bernie Marsden – guitar
Jack Bruce – bass guitar
Don Airey – keyboards
Max Middleton – keyboards
Jeff Beck – guitar
Colin Hodgkinson – bass guitar
Mel Galley – guitar
Jon Lord – keyboards


Трекер:  [ 06-Июл-2012 12:45 ]

  

Скачать .torrent

Размер .torrent файла 18 KB


Размер: 459 MB
Хэш (hash) релиза: 68f80c1776d4f204980339576ee47a1253e71701

Еще никто не оставлял запись к записи скачать торрент Cozy Powell - The Best Of - 1997, APE . Будь первым!

!Обратная связь