Скачать через торрент музыку Nazareth - "The CatchCinema" бесплатно без регистрации torrent

Если у вас наблюдаются проблемы со скриншотами, переходом по ссылками, скачиванием торрентов - проблемы в блокировщике рекламы AdBlock. #хорошегоДня!


Статистика раздачи
Размер:  917 MB   |    Зарегистрирован:  5 лет 1 месяц   |    .torrent скачан:  21 раз   |   
Раздают:  1  
   
Загрузка...
 
Автор Сообщение

Umakiro

avatar Umakiro


Nazareth / "The Catch/Cinema" [Digipack, 2cd] Salvo

Жанр: Hard Rock
Страна-производитель диска: UK
Год издания: 2011 (1984\1986)
Издатель (лейбл): Salvo\Union square Music
Номер по каталогу: SALVOMDCD23
Страна: Scotland
Аудиокодек: FLAC (*.flac)
Тип рипа: image+.cue
Битрейт аудио: lossless
Продолжительность: 0:50:41.33 + 1:10:53.56
Источник (релизер): диск из личной коллекции
Наличие сканов в содержимом раздачи: да
Треклист:
01. / Party Down [0:06:25.34]
02. / Ruby Tuesday [0:03:27.31]
03. / Last Exit Brooklyn [0:03:58.70]
04. / Moondance [0:04:43.55]
05. / Love Of Freedom [0:04:28.41]
06. / This Month's Messiah [0:05:16.55]
07. / You Don't Belive In Us [0:06:37.42]
08. / Sweetheart Tree [0:03:01.54]
09. / Road To Nowhere [0:04:01.27]
10. / Do You Think About It [0:03:46.12]
11. / Party Down (Single Version) [0:04:53.62]
Exact Audio Copy V1.0 beta 3 from 29. August 2011

Отчёт EAC об извлечении, выполненном 4. июля 2012, 15:37

Nazareth / NAZARETH - "THE CATCH/CINEMA" (SALVOMDCD23) 1of2

Дисковод: HL-DT-STDVDRAM GSA-T20N Adapter: 0 ID: 0

Режим чтения : Достоверность
Использование точного потока : Да
Отключение кэша аудио : Да
Использование указателей C2 : Нет

Коррекция смещения при чтении : 667
Способность читать области Lead-in и Lead-out : Нет
Заполнение пропущенных сэмплов тишиной : Да
Удаление блоков с тишиной в начале и конце : Нет
При вычислениях CRC использовались нулевые сэмплы : Да
Интерфейс : Встроенный Win32-интерфейс для Win NT/2000

Выходной формат : Пользовательский кодировщик
Выбранный битрейт : 128 kBit/s
Качество : Высокий
Добавление ID3-тега : Нет
Утилита сжатия : C:\Program Files\EAC_1.0_beta_3_Portable_Multilingual\App\EAC\FLAC\flac.exe
Дополнительные параметры : -6 -V -T "ARTIST=%artist%" -T "TITLE=%title%" -T "ALBUM=%albumtitle%" -T "DATE=%year%" -T "TRACKNUMBER=%tracknr%" -T "GENRE=%genre%" -T "COMMENT=%comment%" %hascover%--picture="%coverfile%"%hascover% %source% -o %dest%

TOC извлечённого CD

Трек | Старт | Длительность | Начальный сектор | Конечный сектор
---------------------------------------------------------------------
1 | 0:00.00 | 6:25.34 | 0 | 28908
2 | 6:25.34 | 3:27.31 | 28909 | 44464
3 | 9:52.65 | 3:58.70 | 44465 | 62384
4 | 13:51.60 | 4:43.55 | 62385 | 83664
5 | 18:35.40 | 4:28.41 | 83665 | 103805
6 | 23:04.06 | 5:16.55 | 103806 | 127560
7 | 28:20.61 | 6:37.42 | 127561 | 157377
8 | 34:58.28 | 3:01.54 | 157378 | 171006
9 | 38:00.07 | 4:01.27 | 171007 | 189108
10 | 42:01.34 | 3:46.12 | 189109 | 206070
11 | 45:47.46 | 4:53.62 | 206071 | 228107

Характеристики диапазона извлечения и сообщения об ошибках

Выбранный диапазон

Имя файла G:\NAZARETH catch cinema\catch\Nazareth - NAZARETH - ''THE CATCH,CINEMA'' (SALVOMDCD23) 1of2.wav

Пиковый уровень 97.7 %
Скорость извлечения 3.8 X
Качество диапазона 100.0 %
CRC теста C21C3B2C
CRC копии C21C3B2C
Копирование... OK

Ошибок не произошло

Конец отчёта

==== Контрольная сумма отчёта 731945952B3D08191995372370C8D001D81CEA9660686DD88AFA2AEB901683CC ====
Треклист:
01. / Cinema [0:04:41.47]
02. / Juliet [0:04:08.55]
03. / Just Another Heartache [0:05:03.70]
04. / Other Side Of You [0:03:44.58]
05. / Hit The Fan [0:03:35.52]
06. / One From The Heart [0:04:23.34]
07. / Salty Salty [0:03:47.60]
08. / White Boy [0:05:08.22]
09. / A Veterans Song [0:05:29.29]
10. / Beggars Day [0:04:11.42]
11. / Cocaine [0:03:55.17]
12. / Party Down [0:04:13.04]
13. / This Month's Messiah [0:05:23.00]
14. / This Flight Tonight [0:04:03.17]
15. / Bad Bad Boy [0:04:45.37]
16. / Teenage Nervous Breakdown [0:04:18.37]
Exact Audio Copy V1.0 beta 3 from 29. August 2011

Отчёт EAC об извлечении, выполненном 4. июля 2012, 16:15

Nazareth / NAZARETH - "THE CATCH-CINEMA" (SALVOMDCD23) 2of2

Дисковод: HL-DT-STDVDRAM GSA-T20N Adapter: 0 ID: 0

Режим чтения : Достоверность
Использование точного потока : Да
Отключение кэша аудио : Да
Использование указателей C2 : Нет

Коррекция смещения при чтении : 667
Способность читать области Lead-in и Lead-out : Нет
Заполнение пропущенных сэмплов тишиной : Да
Удаление блоков с тишиной в начале и конце : Нет
При вычислениях CRC использовались нулевые сэмплы : Да
Интерфейс : Встроенный Win32-интерфейс для Win NT/2000

Выходной формат : Пользовательский кодировщик
Выбранный битрейт : 128 kBit/s
Качество : Высокий
Добавление ID3-тега : Нет
Утилита сжатия : C:\Program Files\EAC_1.0_beta_3_Portable_Multilingual\App\EAC\FLAC\flac.exe
Дополнительные параметры : -6 -V -T "ARTIST=%artist%" -T "TITLE=%title%" -T "ALBUM=%albumtitle%" -T "DATE=%year%" -T "TRACKNUMBER=%tracknr%" -T "GENRE=%genre%" -T "COMMENT=%comment%" %hascover%--picture="%coverfile%"%hascover% %source% -o %dest%

TOC извлечённого CD

Трек | Старт | Длительность | Начальный сектор | Конечный сектор
---------------------------------------------------------------------
1 | 0:00.00 | 4:41.47 | 0 | 21121
2 | 4:41.47 | 4:08.55 | 21122 | 39776
3 | 8:50.27 | 5:03.70 | 39777 | 62571
4 | 13:54.22 | 3:44.58 | 62572 | 79429
5 | 17:39.05 | 3:35.52 | 79430 | 95606
6 | 21:14.57 | 4:23.34 | 95607 | 115365
7 | 25:38.16 | 3:47.60 | 115366 | 132450
8 | 29:26.01 | 5:08.22 | 132451 | 155572
9 | 34:34.23 | 5:29.29 | 155573 | 180276
10 | 40:03.52 | 4:11.42 | 180277 | 199143
11 | 44:15.19 | 3:55.17 | 199144 | 216785
12 | 48:10.36 | 4:13.04 | 216786 | 235764
13 | 52:23.40 | 5:23.00 | 235765 | 259989
14 | 57:46.40 | 4:03.17 | 259990 | 278231
15 | 61:49.57 | 4:45.37 | 278232 | 299643
16 | 66:35.19 | 4:18.37 | 299644 | 319030

Характеристики диапазона извлечения и сообщения об ошибках

Выбранный диапазон

Имя файла G:\NAZARETH catch cinema\cinema\Nazareth - NAZARETH - ''THE CATCH-CINEMA'' (SALVOMDCD23) 2of2.wav

Пиковый уровень 97.7 %
Скорость извлечения 4.1 X
Качество диапазона 100.0 %
CRC теста D4B44313
CRC копии D4B44313
Копирование... OK

Ошибок не произошло

Конец отчёта

==== Контрольная сумма отчёта FABE567F37EFF2DFFE3FF5189F3BDE5AEE45C09FCEB78F3E7A29091669F41A4D ====
Nazareth - великая шотландская хард-рок группа.
Многие ценители альбомов Nazareth 70-х годов не жалуют эти два альбома, но издатели специально объединили эту "прекрасную пару" из середины 80-х, чтобы была понятна эволюция группы.
1984:
Dan McCafferty - vocals
Darrell Sweet - drums
Pete Agnew - bass guitar, guitar
Manny Charlton - lead guitar

1986:
Dan McCafferty - vocals
Darrell Sweet - drums
Pete Agnew - bass guitar, guitar
Manny Charlton - lead guitar
(Calum Malcolm - emulator on "Cinema")


Трекер:  [ 05-Июл-2012 08:22 ]

  

Скачать .torrent

Размер .torrent файла 19 KB


Размер: 917 MB
Хэш (hash) релиза: cca76ee8676553dd44e191336aaac91e02a28570

Еще никто не оставлял запись к записи скачать торрент Nazareth - "The CatchCinema" . Будь первым!

!Обратная связь