Скачать через торрент музыку Andy Timmons Band - Resolution - 2006, FLAC бесплатно без регистрации torrent

Если у вас наблюдаются проблемы со скриншотами, переходом по ссылками, скачиванием торрентов - проблемы в блокировщике рекламы AdBlock. #хорошегоДня!


Статистика раздачи
Размер:  309 MB   |    Зарегистрирован:  5 лет 3 месяца   |    .torrent скачан:  26 раз   |   
Раздают:  1  
   
Загрузка...
 
Автор Сообщение

Umakiro

avatar Umakiro


Andy Timmons Band / Resolution

Жанр: Instrumental Rock / Hard Rock
Год издания: 2006
Издатель (лейбл): Favored Nations
Номер по каталогу: FN2560-2
Страна: USA
Аудиокодек: FLAC (*.flac)
Тип рипа: tracks+.cue
Битрейт аудио: lossless
Продолжительность: 41:57
Источник (релизер): Vortran
Наличие сканов в содержимом раздачи: нет
Треклист:
1. Deliver Us
2. Helipad
3. Ghost Of You
4. Resolution
5. Redemption
6. Lydia
7. Gone (9/11/01)
8. Move On
9. Beware Dark Days
10. The Prayer/The Answer
11. Headed For The Ditch (Bonus Track)
  
EAC extraction logfile from 6. May 2009, 6:39 for CDAndy Timmons Band / Resolution

Used drive : SONY DVD RW AW-G170A Adapter: 0 ID: 1Read mode : Secure with NO C2, accurate stream, disable cacheRead offset correction : 48Overread into Lead-In and Lead-Out : No

Used output format : D:\Program Files\FLAC\flac.exe (User Defined Encoder) 128 kBit/s Additional command line options : -V -8 -T "artist=%a" -T "title=%t" -T "album=%g" -T "date=%y" -T "tracknumber=%n" -T "genre=%m" -5 %s

Other options : Fill up missing offset samples with silence : Yes Delete leading and trailing silent blocks : No Installed external ASPI interface

Track 1 Filename E:\Temp\CD_Rip\Andy Timmons Band\Resolution\01 - Andy Timmons Band - Deliver Us.wav

Pre-gap length 0:00:02.00

Peak level 96.6 % Track quality 100.0 % Test CRC 053AB7A4 Copy CRC 053AB7A4 Copy OK

Track 2 Filename E:\Temp\CD_Rip\Andy Timmons Band\Resolution\02 - Andy Timmons Band - Hellipad.wav

Peak level 96.6 % Track quality 100.0 % Test CRC 28764BFC Copy CRC 28764BFC Copy OK

Track 3 Filename E:\Temp\CD_Rip\Andy Timmons Band\Resolution\03 - Andy Timmons Band - Ghost Of You.wav

Peak level 96.6 % Track quality 100.0 % Test CRC E96EB95E Copy CRC E96EB95E Copy OK

Track 4 Filename E:\Temp\CD_Rip\Andy Timmons Band\Resolution\04 - Andy Timmons Band - Resolution.wav

Peak level 96.6 % Track quality 100.0 % Test CRC 56DF44DD Copy CRC 56DF44DD Copy OK

Track 5 Filename E:\Temp\CD_Rip\Andy Timmons Band\Resolution\05 - Andy Timmons Band - Redemption.wav

Peak level 96.6 % Track quality 100.0 % Test CRC 4B931F40 Copy CRC 4B931F40 Copy OK

Track 6 Filename E:\Temp\CD_Rip\Andy Timmons Band\Resolution\06 - Andy Timmons Band - Lydia.wav

Peak level 96.6 % Track quality 99.9 % Test CRC 5AFE979F Copy CRC 5AFE979F Copy OK

Track 7 Filename E:\Temp\CD_Rip\Andy Timmons Band\Resolution\07 - Andy Timmons Band - Gone.wav

Peak level 96.6 % Track quality 100.0 % Test CRC E55D923D Copy CRC E55D923D Copy OK

Track 8 Filename E:\Temp\CD_Rip\Andy Timmons Band\Resolution\08 - Andy Timmons Band - Move On.wav

Peak level 96.6 % Track quality 100.0 % Test CRC 6388F870 Copy CRC 6388F870 Copy OK

Track 9 Filename E:\Temp\CD_Rip\Andy Timmons Band\Resolution\09 - Andy Timmons Band - Beware Dark Days.wav

Peak level 96.6 % Track quality 99.9 % Test CRC 6EEA38BC Copy CRC 6EEA38BC Copy OK

Track 10 Filename E:\Temp\CD_Rip\Andy Timmons Band\Resolution\10 - Andy Timmons Band - The Prayer-The Answer.wav

Peak level 96.6 % Track quality 100.0 % Test CRC 79701D6B Copy CRC 79701D6B Copy OK

Track 11 Filename E:\Temp\CD_Rip\Andy Timmons Band\Resolution\11 - Andy Timmons Band - Headed For The Ditch.wav

Peak level 96.6 % Track quality 99.9 % Test CRC BD1BEEC2 Copy CRC BD1BEEC2 Copy OK

No errors occured

End of status report
  
REM DISCID 8D0B480BREM COMMENT "ExactAudioCopy v0.95b4"FILE "Andy Timmons Band - Resolution (FLAC)\01 - Andy Timmons Band - Deliver Us.wav" WAVE TRACK 01 AUDIO INDEX 01 00:00:00FILE "Andy Timmons Band - Resolution (FLAC)\02 - Andy Timmons Band - Hellipad.wav" WAVE TRACK 02 AUDIO INDEX 01 00:00:00FILE "Andy Timmons Band - Resolution (FLAC)\03 - Andy Timmons Band - Ghost Of You.wav" WAVE TRACK 03 AUDIO INDEX 01 00:00:00FILE "Andy Timmons Band - Resolution (FLAC)\04 - Andy Timmons Band - Resolution.wav" WAVE TRACK 04 AUDIO INDEX 01 00:00:00FILE "Andy Timmons Band - Resolution (FLAC)\05 - Andy Timmons Band - Redemption.wav" WAVE TRACK 05 AUDIO INDEX 01 00:00:00FILE "Andy Timmons Band - Resolution (FLAC)\06 - Andy Timmons Band - Lydia.wav" WAVE TRACK 06 AUDIO INDEX 01 00:00:00FILE "Andy Timmons Band - Resolution (FLAC)\07 - Andy Timmons Band - Gone.wav" WAVE TRACK 07 AUDIO INDEX 01 00:00:00FILE "Andy Timmons Band - Resolution (FLAC)\08 - Andy Timmons Band - Move On.wav" WAVE TRACK 08 AUDIO INDEX 01 00:00:00FILE "Andy Timmons Band - Resolution (FLAC)\09 - Andy Timmons Band - Beware Dark Days.wav" WAVE TRACK 09 AUDIO INDEX 01 00:00:00FILE "Andy Timmons Band - Resolution (FLAC)\10 - Andy Timmons Band - The Prayer-The Answer.wav" WAVE TRACK 10 AUDIO INDEX 01 00:00:00FILE "Andy Timmons Band - Resolution (FLAC)\11 - Andy Timmons Band - Headed For The Ditch.wav" WAVE TRACK 11 AUDIO INDEX 01 00:00:00


Трекер:  [ 05-Июл-2012 08:22 ]

  

Скачать .torrent

Размер .torrent файла 13 KB


Размер: 309 MB
Хэш (hash) релиза: ab84bd696c5504e829b8121dc0c83a483d139a4d

Еще никто не оставлял запись к записи скачать торрент Andy Timmons Band - Resolution - 2006, FLAC . Будь первым!

!Обратная связь