Скачать через торрент музыку Inhabitants - The Furniture Moves Underneath - 2007, FLAC бесплатно без регистрации torrent

Если у вас наблюдаются проблемы со скриншотами, переходом по ссылками, скачиванием торрентов - проблемы в блокировщике рекламы AdBlock. #хорошегоДня!


Статистика раздачи
Размер:  284 MB   |    Зарегистрирован:  5 лет 4 месяца   |    .torrent скачан:  13 раз   |   
Раздают:  1  
   
Загрузка...
 
Автор Сообщение

Umakiro

avatar Umakiro


Inhabitants / The Furniture Moves Underneath

Жанр: Fusion, Avant-Prog
Страна-производитель диска: Canada
Год издания: 2007
Издатель (лейбл): Drip Audio
Номер по каталогу: DA00253
Страна: Canada
Аудиокодек: FLAC (*.flac)
Тип рипа: tracks+.cue
Битрейт аудио: lossless
Продолжительность: 46:52
Источник (релизер): chimsyn (dcdnet.ru)
Наличие сканов в содержимом раздачи: да
Треклист:
1. Kurt's Dirt. 8:01
2. Sad Friend. 4:57
3. Remember. 7:25
4. The Rancher. 5:49
5. Phototropism. 6:18
6. A Part Of You. 5:19
7. Drop Descender. 9:03
  
Exact Audio Copy V1.0 beta 3 from 29. August 2011

Отчёт EAC об извлечении, выполненном 21. июня 2012, 16:57

Inhabitants / The Furniture Moves Underneath

Дисковод: ASUS DRW-24B3ST Adapter: 3 ID: 1

Режим чтения : ДостоверностьИспользование точного потока : ДаОтключение кэша аудио : ДаИспользование указателей C2 : Нет

Коррекция смещения при чтении : 6Способность читать области Lead-in и Lead-out : НетЗаполнение пропущенных сэмплов тишиной : ДаУдаление блоков с тишиной в начале и конце : НетПри вычислениях CRC использовались нулевые сэмплы : ДаИнтерфейс : Встроенный Win32-интерфейс для Win NT/2000Обработка зазоров : Добавлено к предыдущему треку

Выходной формат : Пользовательский кодировщикВыбранный битрейт : 128 kBit/sКачество : ВысокийДобавление ID3-тега : НетУтилита сжатия : C:\Program Files (x86)\Exact Audio Copy\FLAC\FLAC.EXEДополнительные параметры : -6 -V -T "ARTIST=%artist%" -T "TITLE=%title%" -T "ALBUM=%albumtitle%" -T "DATE=%year%" -T "TRACKNUMBER=%tracknr%" -T "GENRE=%genre%" -T "COMMENT=%comment%" -T "BAND=%albuminterpret%" -T "ALBUMARTIST=%albuminterpret%" -T "COMPOSER=%composer%" %haslyrics%--tag-from-file=LYRICS="%lyricsfile%"%haslyrics% -T "DISCNUMBER=%cdnumber%" -T "TOTALDISCS=%totalcds%" -T "TOTALTRACKS=%numtracks%" %hascover%--picture="%coverfile%"%hascover% %source% -o %dest%

TOC извлечённого CD

Трек | Старт | Длительность | Начальный сектор | Конечный сектор --------------------------------------------------------------------- 1 | 0:00.00 | 8:00.53 | 0 | 36052 2 | 8:00.53 | 4:56.73 | 36053 | 58325 3 | 12:57.51 | 7:25.13 | 58326 | 91713 4 | 20:22.64 | 5:49.17 | 91714 | 117905 5 | 26:12.06 | 6:18.31 | 117906 | 146286 6 | 32:30.37 | 5:18.67 | 146287 | 170203 7 | 37:49.29 | 9:03.08 | 170204 | 210936

Трек 1

Имя файла F:\Загрузки\01. Kurt's Dirt.wav

Длина предзазора 0:00:02.00

Пиковый уровень 97.7 % Скорость извлечения 3.4 X Качество трека 99.9 % CRC теста 25AE90A5 CRC копии 25AE90A5 Точное извлечение (достоверность 1) [C84F2FDA] (AR v1) Копирование... OK

Трек 2

Имя файла F:\Загрузки\02. Sad Friend.wav

Пиковый уровень 97.7 % Скорость извлечения 4.2 X Качество трека 100.0 % CRC теста FED8F87D CRC копии FED8F87D Точное извлечение (достоверность 1) [9A59723B] (AR v1) Копирование... OK

Трек 3

Имя файла F:\Загрузки\03. Remember.wav

Пиковый уровень 97.7 % Скорость извлечения 4.9 X Качество трека 100.0 % CRC теста E2723069 CRC копии E2723069 Точное извлечение (достоверность 1) [B3A6DB74] (AR v1) Копирование... OK

Трек 4

Имя файла F:\Загрузки\04. The Rancher.wav

Пиковый уровень 97.7 % Скорость извлечения 4.5 X Качество трека 99.9 % CRC теста 71E87F45 CRC копии 71E87F45 Точное извлечение (достоверность 1) [EAC0FAD7] (AR v1) Копирование... OK

Трек 5

Имя файла F:\Загрузки\05. Phototropism.wav

Пиковый уровень 97.7 % Скорость извлечения 5.7 X Качество трека 100.0 % CRC теста A0CEDD5A CRC копии A0CEDD5A Точное извлечение (достоверность 1) [F95147CD] (AR v1) Копирование... OK

Трек 6

Имя файла F:\Загрузки\06. A Part Of You.wav

Пиковый уровень 97.2 % Скорость извлечения 5.9 X Качество трека 100.0 % CRC теста C0D298F3 CRC копии C0D298F3 Точное извлечение (достоверность 1) [4BC7F4B7] (AR v1) Копирование... OK

Трек 7

Имя файла F:\Загрузки\07. Drop Descender.wav

Пиковый уровень 97.7 % Скорость извлечения 6.6 X Качество трека 100.0 % CRC теста 7892A6DE CRC копии 7892A6DE Точное извлечение (достоверность 1) [B723493D] (AR v1) Копирование... OK

Все треки извлечены точно

Ошибок не произошло

Конец отчёта

==== Контрольная сумма отчёта 69CB5183575BF30B7E02F33060EAB183CD3201ABB0EF57C685EE8DAE0A67E8F8 ====
  
REM DATE 2007REM DISCID 5E0AFC07REM COMMENT "ExactAudioCopy v1.0b3"PERFORMER "Inhabitants"TITLE "The Furniture Moves Underneath"FILE "01. Kurt's Dirt.wav" WAVE TRACK 01 AUDIO TITLE "Kurt's Dirt" PERFORMER "Inhabitants" INDEX 01 00:00:00FILE "02. Sad Friend.wav" WAVE TRACK 02 AUDIO TITLE "Sad Friend" PERFORMER "Inhabitants" INDEX 01 00:00:00FILE "03. Remember.wav" WAVE TRACK 03 AUDIO TITLE "Remember" PERFORMER "Inhabitants" INDEX 01 00:00:00FILE "04. The Rancher.wav" WAVE TRACK 04 AUDIO TITLE "The Rancher" PERFORMER "Inhabitants" INDEX 01 00:00:00FILE "05. Phototropism.wav" WAVE TRACK 05 AUDIO TITLE "Phototropism" PERFORMER "Inhabitants" INDEX 01 00:00:00FILE "06. A Part Of You.wav" WAVE TRACK 06 AUDIO TITLE "A Part Of You" PERFORMER "Inhabitants" INDEX 01 00:00:00FILE "07. Drop Descender.wav" WAVE TRACK 07 AUDIO TITLE "Drop Descender" PERFORMER "Inhabitants" INDEX 01 00:00:00
  
AUDIOCHECKER v2.0 beta (build 457) - by Dester - <a href="mailto:opdester@freemail.hu" class="postLink">opdester@freemail.hu</a>~~~~~~~~~~~~~~~~~~~~~~~~~~~~~~~~~~

Started at: четверг, 28. 06. 2012. - 12:22.347 files found

1 -===- F:\_Inhabitants\2007 - The Furniture Moves Underneath\01. Kurt's Dirt.flac Extracted successfully Conclusion: this track is CDDA with probability 100% Tempfile successfully deleted.

2 -===- F:\_Inhabitants\2007 - The Furniture Moves Underneath\02. Sad Friend.flac Extracted successfully Conclusion: this track is CDDA with probability 100% Tempfile successfully deleted.

3 -===- F:\_Inhabitants\2007 - The Furniture Moves Underneath\03. Remember.flac Extracted successfully Conclusion: this track is CDDA with probability 100% Tempfile successfully deleted.

4 -===- F:\_Inhabitants\2007 - The Furniture Moves Underneath\04. The Rancher.flac Extracted successfully Conclusion: this track is CDDA with probability 100% Tempfile successfully deleted.

5 -===- F:\_Inhabitants\2007 - The Furniture Moves Underneath\05. Phototropism.flac Extracted successfully Conclusion: this track is CDDA with probability 100% Tempfile successfully deleted.

6 -===- F:\_Inhabitants\2007 - The Furniture Moves Underneath\06. A Part Of You.flac Extracted successfully Conclusion: this track is CDDA with probability 100% Tempfile successfully deleted.

7 -===- F:\_Inhabitants\2007 - The Furniture Moves Underneath\07. Drop Descender.flac Extracted successfully Conclusion: this track is CDDA with probability 100% Tempfile successfully deleted.

Finished at: четверг, 28. 06. 2012. - 12:31.07 (operation time: 0:08.33)
Доп. информация: Produced by Jesse Zubot and The Inhabitants
Recorded In Vancower on April 9/10 2007
At the factory by Sheldon Zaharko
Mixed by Jesse Zubot In the Hole
Mastered by Graemme Brown
JP Carter: trumpet
Dave Sikula: guitar
Pete Schmitt: bass
Skye Brooks: drums


Трекер:  [ 05-Июл-2012 08:22 ]

  

Скачать .torrent

Размер .torrent файла 12 KB


Размер: 284 MB
Хэш (hash) релиза: 15ed3a1db0e8fb9faf4575efbaf7ddd3273eb113

Еще никто не оставлял запись к записи скачать торрент Inhabitants - The Furniture Moves Underneath - 2007, FLAC . Будь первым!

!Обратная связь