Скачать через торрент музыку Inhabitants - A Vacant Lot - 2010, FLAC бесплатно без регистрации torrent

Если у вас наблюдаются проблемы со скриншотами, переходом по ссылками, скачиванием торрентов - проблемы в блокировщике рекламы AdBlock. #хорошегоДня!


Статистика раздачи
Размер:  306 MB   |    Зарегистрирован:  5 лет 1 месяц   |    .torrent скачан:  11 раз   |   
Раздают:  1  
   
Загрузка...
 
Автор Сообщение

Umakiro

avatar Umakiro


Inhabitants / A Vacant Lot

Жанр: Fusion / Avant-Prog
Страна-производитель диска: Canada
Год издания: 2010
Издатель (лейбл): Drip Audio
Номер по каталогу: DA00579
Страна: Canada
Аудиокодек: FLAC (*.flac)
Тип рипа: tracks+.cue
Битрейт аудио: lossless
Продолжительность: 53:41
Источник (релизер): chimsyn (dcdnet.ru)
Наличие сканов в содержимом раздачи: да
Треклист:
1. Far Away In Old World. 4:44
2. Threes. 6:15
3. Over It Begins. 9:25
4. What About the Water? 5:29
5. Journey of the Loach. 9:45
6. Whisting Pass. 4:15
7. Let youth be Served. 4:15
8. Pacific Central. 9:34
  
Exact Audio Copy V1.0 beta 3 from 29. August 2011

Отчёт EAC об извлечении, выполненном 21. июня 2012, 16:32

Inhabitants / A Vacant Lot

Дисковод: ASUS DRW-24B3ST Adapter: 3 ID: 1

Режим чтения : ДостоверностьИспользование точного потока : ДаОтключение кэша аудио : ДаИспользование указателей C2 : Нет

Коррекция смещения при чтении : 6Способность читать области Lead-in и Lead-out : НетЗаполнение пропущенных сэмплов тишиной : ДаУдаление блоков с тишиной в начале и конце : НетПри вычислениях CRC использовались нулевые сэмплы : ДаИнтерфейс : Встроенный Win32-интерфейс для Win NT/2000Обработка зазоров : Добавлено к предыдущему треку

Выходной формат : Пользовательский кодировщикВыбранный битрейт : 128 kBit/sКачество : ВысокийДобавление ID3-тега : НетУтилита сжатия : C:\Program Files (x86)\Exact Audio Copy\FLAC\FLAC.EXEДополнительные параметры : -6 -V -T "ARTIST=%artist%" -T "TITLE=%title%" -T "ALBUM=%albumtitle%" -T "DATE=%year%" -T "TRACKNUMBER=%tracknr%" -T "GENRE=%genre%" -T "COMMENT=%comment%" -T "BAND=%albuminterpret%" -T "ALBUMARTIST=%albuminterpret%" -T "COMPOSER=%composer%" %haslyrics%--tag-from-file=LYRICS="%lyricsfile%"%haslyrics% -T "DISCNUMBER=%cdnumber%" -T "TOTALDISCS=%totalcds%" -T "TOTALTRACKS=%numtracks%" %hascover%--picture="%coverfile%"%hascover% %source% -o %dest%

TOC извлечённого CD

Трек | Старт | Длительность | Начальный сектор | Конечный сектор --------------------------------------------------------------------- 1 | 0:00.00 | 4:43.39 | 0 | 21263 2 | 4:43.39 | 6:14.72 | 21264 | 49385 3 | 10:58.36 | 9:25.29 | 49386 | 91789 4 | 20:23.65 | 5:28.50 | 91790 | 116439 5 | 25:52.40 | 9:44.45 | 116440 | 160284 6 | 35:37.10 | 4:14.69 | 160285 | 179403 7 | 39:52.04 | 4:14.55 | 179404 | 198508 8 | 44:06.59 | 9:34.30 | 198509 | 241588

Трек 1

Имя файла F:\Загрузки\01. Far Away in Old Words.wav

Длина предзазора 0:00:02.00

Пиковый уровень 92.7 % Скорость извлечения 2.9 X Качество трека 99.9 % CRC теста AF80EEAE CRC копии AF80EEAE Трек не обнаружен в базе AccurateRip Копирование... OK

Трек 2

Имя файла F:\Загрузки\02. Threes.wav

Пиковый уровень 100.0 % Скорость извлечения 4.1 X Качество трека 100.0 % CRC теста BFB4C4D0 CRC копии BFB4C4D0 Трек не обнаружен в базе AccurateRip Копирование... OK

Трек 3

Имя файла F:\Загрузки\03. Over It Begins.wav

Пиковый уровень 99.5 % Скорость извлечения 4.2 X Качество трека 99.9 % CRC теста B538EE61 CRC копии B538EE61 Трек не обнаружен в базе AccurateRip Копирование... OK

Трек 4

Имя файла F:\Загрузки\04. What About the Water.wav

Пиковый уровень 80.3 % Скорость извлечения 4.4 X Качество трека 99.9 % CRC теста BD6C336D CRC копии BD6C336D Трек не обнаружен в базе AccurateRip Копирование... OK

Трек 5

Имя файла F:\Загрузки\05. Journey of the Loach.wav

Длина предзазора 0:00:01.51

Пиковый уровень 100.0 % Скорость извлечения 6.0 X Качество трека 100.0 % CRC теста 5BA50D35 CRC копии 5BA50D35 Трек не обнаружен в базе AccurateRip Копирование... OK

Трек 6

Имя файла F:\Загрузки\06. Whistling Pass.wav

Пиковый уровень 75.2 % Скорость извлечения 5.9 X Качество трека 100.0 % CRC теста F814EB65 CRC копии F814EB65 Трек не обнаружен в базе AccurateRip Копирование... OK

Трек 7

Имя файла F:\Загрузки\07. Let Youth Be Served.wav

Длина предзазора 0:00:02.31

Пиковый уровень 100.0 % Скорость извлечения 6.2 X Качество трека 100.0 % CRC теста CDADF38C CRC копии CDADF38C Трек не обнаружен в базе AccurateRip Копирование... OK

Трек 8

Имя файла F:\Загрузки\08. Pacific Central.wav

Длина предзазора 0:00:03.17

Пиковый уровень 99.7 % Скорость извлечения 7.0 X Качество трека 100.0 % CRC теста A40CBFBE CRC копии A40CBFBE Трек не обнаружен в базе AccurateRip Копирование... OK

Ни одного трека нет в базе AccurateRip

Ошибок не произошло

Конец отчёта

==== Контрольная сумма отчёта 7AE5ED6D58C8C302EA391B1C59DEE8FD684DF36C325C2FFE9955710CC8544A4B ====
  
REM DATE 2010REM DISCID 6B0C9508REM COMMENT "ExactAudioCopy v1.0b3"PERFORMER "Inhabitants"TITLE "A Vacant Lot"FILE "01. Far Away in Old Words.wav" WAVE TRACK 01 AUDIO TITLE "Far Away in Old Words" PERFORMER "Inhabitants" INDEX 01 00:00:00FILE "02. Threes.wav" WAVE TRACK 02 AUDIO TITLE "Threes" PERFORMER "Inhabitants" INDEX 01 00:00:00FILE "03. Over It Begins.wav" WAVE TRACK 03 AUDIO TITLE "Over It Begins" PERFORMER "Inhabitants" INDEX 01 00:00:00FILE "04. What About the Water.wav" WAVE TRACK 04 AUDIO TITLE "What About the Water?" PERFORMER "Inhabitants" INDEX 01 00:00:00 TRACK 05 AUDIO TITLE "Journey of the Loach" PERFORMER "Inhabitants" INDEX 00 05:26:74FILE "05. Journey of the Loach.wav" WAVE INDEX 01 00:00:00FILE "06. Whistling Pass.wav" WAVE TRACK 06 AUDIO TITLE "Whistling Pass" PERFORMER "Inhabitants" INDEX 01 00:00:00 TRACK 07 AUDIO TITLE "Let Youth Be Served" PERFORMER "Inhabitants" INDEX 00 04:12:38FILE "07. Let Youth Be Served.wav" WAVE INDEX 01 00:00:00 TRACK 08 AUDIO TITLE "Pacific Central" PERFORMER "Inhabitants" INDEX 00 04:11:38FILE "08. Pacific Central.wav" WAVE INDEX 01 00:00:00
  
AUDIOCHECKER v2.0 beta (build 457) - by Dester - <a href="mailto:opdester@freemail.hu" class="postLink">opdester@freemail.hu</a>~~~~~~~~~~~~~~~~~~~~~~~~~~~~~~~~~~

Started at: четверг, 28. 06. 2012. - 18:56.378 files found

1 -===- F:\_Music\_Audio\Audio Collection vol. 122\05 - Inhabitants\2010 - A Vacant Lot\01. Far Away in Old Words.flac Extracted successfully Conclusion: this track is CDDA with probability 100% Tempfile successfully deleted.

2 -===- F:\_Music\_Audio\Audio Collection vol. 122\05 - Inhabitants\2010 - A Vacant Lot\02. Threes.flac Extracted successfully Conclusion: this track is CDDA with probability 100% Tempfile successfully deleted.

3 -===- F:\_Music\_Audio\Audio Collection vol. 122\05 - Inhabitants\2010 - A Vacant Lot\03. Over It Begins.flac Extracted successfully Conclusion: this track is CDDA with probability 100% Tempfile successfully deleted.

4 -===- F:\_Music\_Audio\Audio Collection vol. 122\05 - Inhabitants\2010 - A Vacant Lot\04. What About the Water.flac Extracted successfully Conclusion: this track is CDDA with probability 100% Tempfile successfully deleted.

5 -===- F:\_Music\_Audio\Audio Collection vol. 122\05 - Inhabitants\2010 - A Vacant Lot\05. Journey of the Loach.flac Extracted successfully Conclusion: this track is CDDA with probability 100% Tempfile successfully deleted.

6 -===- F:\_Music\_Audio\Audio Collection vol. 122\05 - Inhabitants\2010 - A Vacant Lot\06. Whistling Pass.flac Extracted successfully Conclusion: this track is CDDA with probability 100% Tempfile successfully deleted.

7 -===- F:\_Music\_Audio\Audio Collection vol. 122\05 - Inhabitants\2010 - A Vacant Lot\07. Let Youth Be Served.flac Extracted successfully Conclusion: this track is CDDA with probability 99% Tempfile successfully deleted.

8 -===- F:\_Music\_Audio\Audio Collection vol. 122\05 - Inhabitants\2010 - A Vacant Lot\08. Pacific Central.flac Extracted successfully Conclusion: this track is CDDA with probability 100% Tempfile successfully deleted.

Finished at: четверг, 28. 06. 2012. - 19:07.13 (operation time: 0:10.36)
Produced by Jesse Zubot and The Inhabitants
Recorded In Vancower on October 22/23 2007
At the factory by Sheldon Zaharko
Mixed by Greg Reely
Mastered by Dave Sikula
JP Carter: trumpet
Dave Sikula: guitar
Pete Schmitt: bass
Skye Brooks: drums


Трекер:  [ 05-Июл-2012 08:22 ]

  

Скачать .torrent

Размер .torrent файла 13 KB


Размер: 306 MB
Хэш (hash) релиза: 04f531f4489ba05caa96b7a288c97cd17b3e13c8

Еще никто не оставлял запись к записи скачать торрент Inhabitants - A Vacant Lot - 2010, FLAC . Будь первым!

!Обратная связь