Скачать через торрент музыку Brett Kull - Orange-ish Blue - 2002, APE бесплатно без регистрации torrent

Если у вас наблюдаются проблемы со скриншотами, переходом по ссылками, скачиванием торрентов - проблемы в блокировщике рекламы AdBlock. #хорошегоДня!


Статистика раздачи
Размер:  318 MB   |    Зарегистрирован:  5 лет 1 месяц   |    .torrent скачан:  14 раз   |   
Раздают:  1  
   
Загрузка...
 
Автор Сообщение

Umakiro

avatar Umakiro


Brett Kull - Orange-ish Blue

Жанр: Progressive Rock
Страна-производитель диска: США
Год издания: 2002
Издатель (лейбл): Echolyn/Brett Kull
Номер по каталогу: VR 2008
Аудиокодек: APE (*.ape)
Тип рипа: image+.cue
Битрейт аудио: lossless
Продолжительность: 49:17
Источник (релизер): SORIA (hqshare)
Наличие сканов в содержимом раздачи: да

Треклист:
01. Kisses In The Sun (5:02)
02. Mister Greenlight (3:13)
03. All The Rage (3:23)
04. So It Goes (4:07)
05. When I Dream (3:47)
06. Main Street (3:19)
07. 15 Hours (4:03)
08. Change (5:28)
09. Come on Joe (1:59)
10. Sometimes Love Forgets (3:34)
11. Untitled #1 (4:23)
12. I Won't Say Goodbye (4:53)
13. End (1:46)
  
Exact Audio Copy V1.0 beta 3 from 29. August 2011

EAC extraction logfile from 3. July 2012, 20:31

Brett Kull / Orange-ish Blue

Used drive : Optiarc DVD RW AD-7173A Adapter: 4 ID: 1

Read mode : SecureUtilize accurate stream : YesDefeat audio cache : YesMake use of C2 pointers : No

Read offset correction : 48Overread into Lead-In and Lead-Out : NoFill up missing offset samples with silence : YesDelete leading and trailing silent blocks : NoNull samples used in CRC calculations : YesUsed interface : Native Win32 interface for Win NT & 2000

Used output format : Internal WAV RoutinesSample format : 44.100 Hz; 16 Bit; Stereo

TOC of the extracted CD

Track | Start | Length | Start sector | End sector --------------------------------------------------------- 1 | 0:00.00 | 5:04.38 | 0 | 22837 2 | 5:04.38 | 3:13.55 | 22838 | 37367 3 | 8:18.18 | 3:24.57 | 37368 | 52724 4 | 11:43.00 | 4:09.29 | 52725 | 71428 5 | 15:52.29 | 3:50.48 | 71429 | 88726 6 | 19:43.02 | 3:19.19 | 88727 | 103670 7 | 23:02.21 | 4:03.47 | 103671 | 121942 8 | 27:05.68 | 5:30.25 | 121943 | 146717 9 | 32:36.18 | 2:01.41 | 146718 | 155833 10 | 34:37.59 | 3:34.59 | 155834 | 171942 11 | 38:12.43 | 4:25.04 | 171943 | 191821 12 | 42:37.47 | 4:53.13 | 191822 | 213809 13 | 47:30.60 | 1:46.30 | 213810 | 221789

Range status and errors

Selected range

Filename E:\+EAC+\Brett Kull - Orange-ish Blue.wav

Peak level 99.5 % Extraction speed 4.1 X Range quality 99.9 % Test CRC E33EB47A Copy CRC E33EB47A Copy OK

No errors occurred

End of status report

---- CUETools DB Plugin V2.1.3

[CTDB TOCID: sjtWGe6.s5X0WCIryYYiJJq2CsY-] disk not present in database, Submit result: sjtWGe6.s5X0WCIryYYiJJq2CsY- has been uploaded

==== Log checksum 7B55CCA827F5D93BAEA9BF6DA2D94C2BBF111E2D86A423A7E768F0F4EE379832 ====
  
REM GENRE RockREM DATE 2002REM DISCID BD0B8D0DREM COMMENT "ExactAudioCopy v1.0b3"PERFORMER "Brett Kull"TITLE "Orange-ish Blue"FILE "Brett Kull - Orange-ish Blue.wav" WAVE TRACK 01 AUDIO TITLE "Kisses In The Sun" PERFORMER "Brett Kull" INDEX 01 00:00:00 TRACK 02 AUDIO TITLE "Mister Greenlight" PERFORMER "Brett Kull" INDEX 00 05:03:05 INDEX 01 05:04:38 TRACK 03 AUDIO TITLE "All The Rage" PERFORMER "Brett Kull" INDEX 00 08:18:17 INDEX 01 08:18:18 TRACK 04 AUDIO TITLE "So It Goes" PERFORMER "Brett Kull" INDEX 00 11:41:62 INDEX 01 11:43:00 TRACK 05 AUDIO TITLE "When I Dream" PERFORMER "Brett Kull" INDEX 00 15:50:27 INDEX 01 15:52:29 TRACK 06 AUDIO TITLE "Main Street" PERFORMER "Brett Kull" INDEX 00 19:40:08 INDEX 01 19:43:02 TRACK 07 AUDIO TITLE "15 Hours" PERFORMER "Brett Kull" INDEX 01 23:02:21 TRACK 08 AUDIO TITLE "Change" PERFORMER "Brett Kull" INDEX 00 27:05:54 INDEX 01 27:05:68 TRACK 09 AUDIO TITLE "Come On Joe" PERFORMER "Brett Kull" INDEX 00 32:34:25 INDEX 01 32:36:18 TRACK 10 AUDIO TITLE "Sometimes Love Forgets" PERFORMER "Brett Kull" INDEX 00 34:35:68 INDEX 01 34:37:59 TRACK 11 AUDIO TITLE "Untitled #1" PERFORMER "Brett Kull" INDEX 01 38:12:43 TRACK 12 AUDIO TITLE "I Won't Say Goodbye" PERFORMER "Brett Kull" INDEX 00 42:36:08 INDEX 01 42:37:47 TRACK 13 AUDIO TITLE "End" PERFORMER "Brett Kull" INDEX 01 47:30:60
If you are looking the perfect summer song for 2002, may I suggest Brett Kull's "Mr. Greenlight," from Orangish-Blue? With it's catchy chorus and upbeat feel, it seems just right. This album is unlike his regular gig Echolyn, and has a feel akin to the Beatles, mostly Paul McCartney. It's accessible as all get out, and fun as hell to listen to. It not prog, but it certainly is a nice antidote to the "boy band" epidemic. I like the textures that Kull uses on this album, the colours that he paints with. It's a warm, open, friendly album. I couldn't get "Kisses In The Sun," the hooky first track, out of my head for the longest time; it's been supplanted now by "Mister Greenlight."
This album serves, in part, as an homage to all the great artists of the 60's - 70s, as Kull's sound here not only is Beatles-esque, but you will also hear musical elements of Fleetwood Mac ("All The Rage"), Janis Joplin ("So It Goes"), and the Beach Boys (and, though not a 60s/70s band, the Red Hot Chili Peppers) ("When I Dream"), for example. Specifically, I couldn't help but think of "Landslide" whilst listening to "All The Rage" (though the lyrics could easily be from a Nirvana track ... the irony is that they are not delivered with the sharp bile of Cobain) and of "Little Piece Of My Heart" with "So It Goes." 'When I Dream," may begin with Beach Boys-like harmonies, for the most part, Kull sounds like Anthony Kiedis, and the song has the same kind of rhythm and mellowness that the RHCP's "Under The Bridge" has. "Main Street" is an upbeat, mid-tempo roots rocker -- a la John Mellancamp, say. The Knack come to mind with "Come On Joe," but I'm not sure if that's a reference that will come to everyone, as it's not their hit I'm thinking of. I'll admit that I've listened to that band's first three albums a lot. There's a bit of a blues guitar solo in there at the end, something that should have been developed a little further. "Sometimes Love Forgets" is a nice piece that harks back even further than the rock of late 60s-early 70s. The orchestration that fellow Echolyn cohort Chris Buzby gives this track recalls a 40s film feel over which Kull's vocals are added... there is also a cinematic feel to it. Maybe something from a Woody Allen romantic comedy, and saying that a nightime New York street scene comes to mind. It's a rather nice song where you will hear real violins and cello, which tends to be uncommon nowadays. That's not to say Buzby might not have filled out the orchestra on his keyboards. "I Won't Say Goodbye" has a classic feel about it. You feel you should already know it, that it was a radio staple from long ago.
With Buzby on keys, there is a distinctive Echolyn sound to it, as you will think of Cowboy Poems Free at times. At speaking of cowboys, there's a bit of a country & western feel here, too, not just down to the acoustic nature of the album but also because of "Untitled #1," which is a slow burning piece. Twangy guitars, snicking cymbals, and a warm, acoustic feel all add to this country tune. Oh, I suppose at times the Eagles will come to mind, they did for me towards the end, but it's just a little bit more country than the Eagles got. But, saying that, it might have fit perfectly on Desperado. "End" made me think of Billy Joel's "Where's The Orchestra," which ended his 1983 album The Nylon Curtain... though I don't think Kull was thinking at all of that in composing this. It lasts all too briefly, this piano and voice only piece.
There's a nice, though brief, instrumental interlude at the end of "Change"-- grinding bass, shimmering guitar, drums and percussion... that is another instance of one wanting it to go somewhere, become something.
I like Kull's album. It's not perfect... "15 Days" seems to slow the momentum, and it takes a couple of tracks to get going again. But there's a lot to like about it.
Musicians:
Brett Kull - guitars, bass, vocals

Guest musicians:
Paul Ramsey - drums, percussion
Chris Buzby - piano, harmonium
Dwayne Klessel - synthesizers
Emily Botel - violin
Janosch Armer - violin
Daniel Montalbano - violin
Jonathan Atkins - cello
Molly Decker - vocals
Jordan Perlson - percussion


Трекер:  [ 05-Июл-2012 08:22 ]

  

Скачать .torrent

Размер .torrent файла 13 KB


Размер: 318 MB
Хэш (hash) релиза: edb66e33dd2dfd964d6514c8ad6cd27d3b5990a6

Еще никто не оставлял запись к записи скачать торрент Brett Kull - Orange-ish Blue - 2002, APE . Будь первым!

!Обратная связь