Скачать через торрент музыку Gungfly - Please Be Quiet - 2009, APE бесплатно без регистрации torrent

Если у вас наблюдаются проблемы со скриншотами, переходом по ссылками, скачиванием торрентов - проблемы в блокировщике рекламы AdBlock. #хорошегоДня!


Статистика раздачи
Размер:  447 MB   |    Зарегистрирован:  5 лет 4 месяца   |    .torrent скачан:  10 раз   |   
Раздают:  1  
   
Загрузка...
 
Автор Сообщение

Umakiro

avatar Umakiro


Gungfly - Please Be Quiet

Жанр: Crossover Prog
Страна-производитель диска: Швеция
Год издания: 2009
Издатель (лейбл): Gungfly Productions
Номер по каталогу: JSM 005
Аудиокодек: APE (*.ape)
Тип рипа: image+.cue
Битрейт аудио: lossless
Продолжительность: 64:33
Источник (релизер): SORIA (hqshare)
Наличие сканов в содержимом раздачи: да

Треклист:
01. Whiskers (3:44)
02. On and On (4:36)
03. No Remorse (4:46)
04. Before the Winter (4:56)
05. Rumbling Boxes (8:38)
06. Old Like Me (3:17)
07. She Is Gone Again (3:16)
08. Go on Alone (3:04)
09. Fly Into the Sun (4:47)
10. The Prisoner (4:23)
11. Make It Better (3:40)
12. Crimson Coloured Negative (5:24)
13. Are You Aware That I'm Awake? (4:35)
14. Son of Sun (0:49)
15. Roland No More (4:39)
  
Exact Audio Copy V1.0 beta 3 from 29. August 2011

EAC extraction logfile from 3. July 2012, 19:55

Gungfly / Please Be Quiet

Used drive : Optiarc DVD RW AD-7173A Adapter: 4 ID: 1

Read mode : SecureUtilize accurate stream : YesDefeat audio cache : YesMake use of C2 pointers : No

Read offset correction : 48Overread into Lead-In and Lead-Out : NoFill up missing offset samples with silence : YesDelete leading and trailing silent blocks : NoNull samples used in CRC calculations : YesUsed interface : Native Win32 interface for Win NT & 2000

Used output format : Internal WAV RoutinesSample format : 44.100 Hz; 16 Bit; Stereo

TOC of the extracted CD

Track | Start | Length | Start sector | End sector --------------------------------------------------------- 1 | 0:00.00 | 3:43.66 | 0 | 16790 2 | 3:43.66 | 4:36.34 | 16791 | 37524 3 | 8:20.25 | 4:45.42 | 37525 | 58941 4 | 13:05.67 | 4:56.13 | 58942 | 81154 5 | 18:02.05 | 8:38.22 | 81155 | 120026 6 | 26:40.27 | 3:17.00 | 120027 | 134801 7 | 29:57.27 | 3:15.45 | 134802 | 149471 8 | 33:12.72 | 3:04.28 | 149472 | 163299 9 | 36:17.25 | 4:47.01 | 163300 | 184825 10 | 41:04.26 | 4:22.52 | 184826 | 204527 11 | 45:27.03 | 3:39.48 | 204528 | 221000 12 | 49:06.51 | 5:24.11 | 221001 | 245311 13 | 54:30.62 | 4:35.06 | 245312 | 265942 14 | 59:05.68 | 0:48.72 | 265943 | 269614 15 | 59:54.65 | 4:38.40 | 269615 | 290504

Range status and errors

Selected range

Filename E:\+EAC+\Gungfly - Please Be Quiet.wav

Peak level 99.9 % Extraction speed 5.4 X Range quality 100.0 % Test CRC F8D0EE7A Copy CRC F8D0EE7A Copy OK

No errors occurred

End of status report

---- CUETools DB Plugin V2.1.3

[CTDB TOCID: vwbhTLCVy7T2sxuuNwxDftQDVCM-] found, Submit result: vwbhTLCVy7T2sxuuNwxDftQDVCM- has been confirmed[8ef3b60d] (4/4) Accurately ripped

==== Log checksum FC0ACB36960BF8D1CCB3B536BC0351B9E6D5F36EBD59618D74026DB08CEF0F69 ====
  
REM GENRE "Progressive Rock"REM DATE 2009REM DISCID F70F210FREM COMMENT "ExactAudioCopy v1.0b3"PERFORMER "Gungfly"TITLE "Please Be Quiet"FILE "Gungfly - Please Be Quiet.wav" WAVE TRACK 01 AUDIO TITLE "Whiskers" PERFORMER "Gungfly" INDEX 01 00:00:00 TRACK 02 AUDIO TITLE "On And On" PERFORMER "Gungfly" INDEX 00 03:43:49 INDEX 01 03:43:66 TRACK 03 AUDIO TITLE "No Remorse" PERFORMER "Gungfly" INDEX 00 08:20:16 INDEX 01 08:20:25 TRACK 04 AUDIO TITLE "Before The Winter" PERFORMER "Gungfly" INDEX 00 13:05:03 INDEX 01 13:05:67 TRACK 05 AUDIO TITLE "Rumbling Boxes" PERFORMER "Gungfly" INDEX 00 17:59:14 INDEX 01 18:02:05 TRACK 06 AUDIO TITLE "Old Like Me" PERFORMER "Gungfly" INDEX 00 26:34:26 INDEX 01 26:40:27 TRACK 07 AUDIO TITLE "She Is Gone Again" PERFORMER "Gungfly" INDEX 00 29:53:18 INDEX 01 29:57:27 TRACK 08 AUDIO TITLE "Go On Alone" PERFORMER "Gungfly" INDEX 00 33:09:60 INDEX 01 33:12:72 TRACK 09 AUDIO TITLE "Fly Into The Sun" PERFORMER "Gungfly" INDEX 00 36:14:47 INDEX 01 36:17:25 TRACK 10 AUDIO TITLE "The Prisoner" PERFORMER "Gungfly" INDEX 00 41:03:62 INDEX 01 41:04:26 TRACK 11 AUDIO TITLE "Make It Better" PERFORMER "Gungfly" INDEX 01 45:27:03 TRACK 12 AUDIO TITLE "Crimson Coloured Negative" PERFORMER "Gungfly" INDEX 00 49:03:33 INDEX 01 49:06:51 TRACK 13 AUDIO TITLE "Are You Aware That I'm Awake" PERFORMER "Gungfly" INDEX 00 54:30:55 INDEX 01 54:30:62 TRACK 14 AUDIO TITLE "Son Of Sun" PERFORMER "Gungfly" INDEX 00 59:05:55 INDEX 01 59:05:68 TRACK 15 AUDIO TITLE "Roland No More" PERFORMER "Gungfly" INDEX 00 59:52:10 INDEX 01 59:54:65
Quiet, subtle piano and voice (let's talk about it later): "It's early in the morning, when they come, and I like to sleep until three, but she hates this life as much as I..." starts first track here, Whiskers. I've realized that even this song looks like love song about his girl, "whiskers" reference hints that it's actually about his cat. Good one Rikard, you got me here.
Oh, I almost forgot, his voice was one of the best things about Beardfish (one of more great things about this band), so here, it simply shines. "I got down so low, so low [deep bass voice], so low...". Funny Prog music reigns again and for this, I'm always glad. This album flows forward easily, is very pleasant to listen, provides some elements (bass, keyboards twists) from Beardfish (also funny element, so rare in modern Prog music, well, not so many people do shrooms I suppose [OK, this is not drug inducted music as well, but this relation seemed so clear, heh]).
Cover art of person (of some kind, gender, age) done in monumental way (like some kind of ancient fallen statue, with these circle ripples, that are confusing quite a bit). On and On kicks in and stays in faster pace, except short part where there's some kind of interlude towards the rest of song to finally graduate again. Backing vocals together with crazy guitar, building of this song step by step, vocal work (hell, he's so Progressive in this). What more can I say ?
Maybe to continue with No Remorse stars with completely different style of singing again (I'm used to it, it's basic foundation of this album after all). Yes, there's no remorse to multi-instrumental part right after intro, which is some kind of singed "solo" that continues with synthesizers produced solo (real one this time). Song flows like the old river and has very special atmosphere, the accordion is shining star here. And with glimpse of something strange in the very end (last 15 seconds of the song are quite, well, unique)
And going on with Before the Winter which goes into spanish (really?) rhythm, with accordion in the middle (is it really good old acc?) with some kind of "Eagles - Hotel California" guitar solo. These are the best moments here I suppose.
Rumbling Boxes has weird lyrics with sparks of miniature choruses. However, this breaks in the middle, where we experience tiny drums solo and some more jazzy-like lyrics with specific Beardfish (or Rikard's?) atmosphere. And it's changing again in around 6 minutes onwards. It's The Changing Song I would say, full of tiny bits joined in a clever way together. It's like "Paris I Love You" (film), or this episode of The Simpsons (21 short stories about Springfield). Ending with wild keyboard solo.
5(-) to be honest, because if you're fan of Beardfish, you'll love it. And if you're not fan of BF, you're in quite minority here. I like to exaggerate from time to time, when I have a reason to do so. And here, you can find many reasons to do so. Some people may find some songs not so "Prog", however, let's examine them more closely. Hey, just try vocals here, how variable his voice can be. It's strange, but I consider it as the most Progressive thing here. He has more place than in Beardfish to show and prove his skills and, well, it works.
-- progarchives.com
Line-up / Musicians
- Rikard Sjöblom / vocals, all instruments
- Petter Diamant / drums (tracks 2, 6, 8, 11)
- Robert Hansen / bass (tracks 8, 11)
- Rasmus Diamant / bass (track 7)


Трекер:  [ 05-Июл-2012 08:22 ]

  

Скачать .torrent

Размер .torrent файла 18 KB


Размер: 447 MB
Хэш (hash) релиза: 0a16040a5dbe9db9fe37e822178e671a21121cfc

Еще никто не оставлял запись к записи скачать торрент Gungfly - Please Be Quiet - 2009, APE . Будь первым!

!Обратная связь