Скачать через торрент музыку Jason Mraz - Love Is Four Letter Word - 2012, APE бесплатно без регистрации torrent

Если у вас наблюдаются проблемы со скриншотами, переходом по ссылками, скачиванием торрентов - проблемы в блокировщике рекламы AdBlock. #хорошегоДня!


Статистика раздачи
Размер:  356 MB   |    Зарегистрирован:  5 лет 4 месяца   |    .torrent скачан:  10 раз   |   
Раздают:  1  
   
Загрузка...
 
Автор Сообщение

Umakiro

avatar Umakiro


Jason Mraz - Love Is Four Letter Word

Жанр: Pop Rock/Soft Rock
Страна-производитель диска: USA
Год издания: 2012
Издатель (лейбл): Atlantic
Номер по каталогу: 530701-2
Страна: USA
Аудиокодек: APE (*.ape)
Тип рипа: image+.cue
Битрейт аудио: lossless
Продолжительность: 00:55:54
Источник (релизер): Диск из личной коллекции
Наличие сканов в содержимом раздачи: да
Треклист:

01. The Freedom Song
02. Living In The Moment
03. The Woman I Love
04. I Won't Give Up
05. 5/6
06. Everything Is Sound
07. 93 Million Miles
08. Frank D. Fixer
09. Who’s Thinking About You Now?
10. In Your Hands
11. Be Honest (feat. Inara George)
12. The World As I See It
  
Exact Audio Copy V0.99 prebeta 4 from 23. January 2008

Отчёт EAC об извлечении, выполненном 3. июля 2012, 20:10

Jason Mraz / Love is a Four Letter Word

Дисковод: PLEXTOR DVDR PX-800A Adapter: 0 ID: 0

Режим чтения : ДостоверностьИспользование точного потока : ДаОтключение кэша аудио : ДаИспользование указателей C2 : Нет

Коррекция смещения при чтении : 48Способность читать области Lead-in и Lead-out : НетЗаполнение пропущенных сэмплов тишиной : ДаУдаление блоков с тишиной в начале и конце : НетПри вычислениях CRC использовались нулевые сэмплы : ДаИнтерфейс : Встроенный Win32-интерфейс для Win NT/2000

Выходной формат : Внутренние WAV-операцииФормат сэмплов : 44.100 Гц; 16 бит; стерео

TOC извлечённого CD

Трек | Старт | Длительность | Начальный сектор | Конечный сектор --------------------------------------------------------------------- 1 | 0:00.00 | 4:00.46 | 0 | 18045 2 | 4:00.46 | 3:55.06 | 18046 | 35676 3 | 7:55.52 | 3:04.51 | 35677 | 49527 4 | 11:00.28 | 3:58.67 | 49528 | 67444 5 | 14:59.20 | 5:57.16 | 67445 | 94235 6 | 20:56.36 | 4:45.41 | 94236 | 115651 7 | 25:42.02 | 3:36.29 | 115652 | 131880 8 | 29:18.31 | 4:45.12 | 131881 | 153267 9 | 34:03.43 | 4:47.49 | 153268 | 174841 10 | 38:51.17 | 4:51.26 | 174842 | 196692 11 | 43:42.43 | 3:25.00 | 196693 | 212067 12 | 47:07.43 | 8:46.74 | 212068 | 251591 13 | 58:26.42 | 5:09.04 | 262992 | 286170

Характеристики диапазона извлечения и сообщения об ошибках

Выбранный диапазон

Имя файла D:\Lossless\Jason Mraz-Plextor\Jason Mraz - Love is a Four Letter Word.wav

Пиковый уровень 100.0 % Качество диапазона 99.9 % CRC теста 90D10A1D CRC копии 90D10A1D Копирование... OK

Ошибок не произошло

AccurateRip: сводка

Трек 1 точность не определена (достоверность 5) [D0C4CE5A], AccurateRip вернул [309AB767]Трек 2 точность не определена (достоверность 5) [B486BF52], AccurateRip вернул [148107ED]Трек 3 точность не определена (достоверность 5) [ABACD81A], AccurateRip вернул [A766AC39]Трек 4 точность не определена (достоверность 5) [929557C1], AccurateRip вернул [CF603194]Трек 5 точность не определена (достоверность 5) [5CBAF6F3], AccurateRip вернул [33BF0F9D]Трек 6 точность не определена (достоверность 5) [7BBC9BCD], AccurateRip вернул [F6466B02]Трек 7 точность не определена (достоверность 5) [4C7BB454], AccurateRip вернул [7F87FCD4]Трек 8 точность не определена (достоверность 5) [5AF0FC0B], AccurateRip вернул [471868B6]Трек 9 точность не определена (достоверность 5) [D14D30B1], AccurateRip вернул [0B73327D]Трек 10 точность не определена (достоверность 5) [31A15C34], AccurateRip вернул [86346F5F]Трек 11 точность не определена (достоверность 5) [15634915], AccurateRip вернул [C11D641E]Трек 12 точность не определена (достоверность 5) [837F228A], AccurateRip вернул [551A8BB1]

Ни один трек не прошёл проверки на точностьВ вашей базе может быть иной вариант штамповки диска

Конец отчёта
  
REM GENRE FolkREM DATE 2012REM DISCID A90EE70DREM COMMENT "ExactAudioCopy v0.99pb4"PERFORMER "Jason Mraz"TITLE "Love is a Four Letter Word"FILE "Jason Mraz - Love is a Four Letter Word.wav" WAVE TRACK 01 AUDIO TITLE "The Freedom Song" PERFORMER "Jason Mraz" INDEX 01 00:00:00 TRACK 02 AUDIO TITLE "Living in the Moment" PERFORMER "Jason Mraz" INDEX 00 03:59:74 INDEX 01 04:00:46 TRACK 03 AUDIO TITLE "The Woman I Love" PERFORMER "Jason Mraz" INDEX 01 07:55:52 TRACK 04 AUDIO TITLE "I Won't Give Up" PERFORMER "Jason Mraz" INDEX 01 11:00:28 TRACK 05 AUDIO TITLE "5/6" PERFORMER "Jason Mraz" INDEX 01 14:59:20 TRACK 06 AUDIO TITLE "Everything is Sound" PERFORMER "Jason Mraz" INDEX 01 20:56:36 TRACK 07 AUDIO TITLE "93 Million Miles" PERFORMER "Jason Mraz" INDEX 01 25:42:02 TRACK 08 AUDIO TITLE "Frank D. Fixer" PERFORMER "Jason Mraz" INDEX 01 29:18:31 TRACK 09 AUDIO TITLE "Who's Thinking about You Now?" PERFORMER "Jason Mraz" INDEX 01 34:03:43 TRACK 10 AUDIO TITLE "In Your Hands" PERFORMER "Jason Mraz" INDEX 01 38:51:17 TRACK 11 AUDIO TITLE "Be Honest (feat. Inara George)" PERFORMER "Jason Mraz" INDEX 01 43:42:43 TRACK 12 AUDIO TITLE "The World As I See It" PERFORMER "Jason Mraz" INDEX 01 47:07:43


Трекер:  [ 05-Июл-2012 08:22 ]

  

Скачать .torrent

Размер .torrent файла 15 KB


Размер: 356 MB
Хэш (hash) релиза: 8ad4f57345b0578ad10bb4ee799c676fd3534cdc

Еще никто не оставлял запись к записи скачать торрент Jason Mraz - Love Is Four Letter Word - 2012, APE . Будь первым!

!Обратная связь