..."/> ...">

Скачать через торрент музыку Toyah - The Blue Meaning - 1980 бесплатно без регистрации torrent

Если у вас наблюдаются проблемы со скриншотами, переходом по ссылками, скачиванием торрентов - проблемы в блокировщике рекламы AdBlock. #хорошегоДня!


Статистика раздачи
Размер:  352 MB   |    Зарегистрирован:  5 лет 1 месяц   |    .torrent скачан:  30 раз   |   
Раздают:  1  
   
Загрузка...
 
Автор Сообщение

Umakiro

avatar Umakiro


Toyah / The Blue Meaning

Жанр: New Wave, Post Punk
Страна-производитель диска: UK
Год издания: 1980 (2002)
Издатель (лейбл): Safari
Номер по каталогу: VOORCD4002-2
Страна: UK
Аудиокодек: FLAC (*.flac)
Тип рипа: tracks+.cue
Битрейт аудио: lossless
Продолжительность: 00:50:07
Источник (релизер): Собственный диск
Наличие сканов в содержимом раздачи: нет
Треклист:
01. "Ieya" (Willcox, Bogen, Bush) - 8:15
02. "Spaced Walking" (Willcox, Bush) - 2:20
03. "Ghosts" (Willcox, Bogen, Bush, Francis) - 3:29
04. "Mummies" (Willcox, Bogen, Bush, Francis) - 2:58
05. "Blue Meanings" (Willcox, Bogen, Bush) - 5:03
06. "Tiger! Tiger!" (Willcox, Bray, Bogen, Francis, Bush) - 3:19
07. "Vision" (Willcox, Bogen, Bush) - 4:06
08. "Insects" (Willcox, Bogen, Bush) - 2:44
09. "Love Me" (Willcox, Bogen, Bush) - 3:02
10. "She" (Willcox, Bray, Bogen, Francis, Bush) - 6:03
11. "Sphinx" (Willcox, Bogen)- 3:15
12. "Street Addict" (Willcox, Bogen, Spalding)
  
Exact Audio Copy V1.0 beta 3 from 29. August 2011

EAC extraction logfile from 3. July 2012, 20:50

Toyah / The Blue Meaning

Used drive : TSSTcorpDVD+-RW TS-L633C Adapter: 0 ID: 1

Read mode : SecureUtilize accurate stream : YesDefeat audio cache : YesMake use of C2 pointers : No

Read offset correction : 6Overread into Lead-In and Lead-Out : NoFill up missing offset samples with silence : YesDelete leading and trailing silent blocks : NoNull samples used in CRC calculations : YesUsed interface : Native Win32 interface for Win NT & 2000Gap handling : Appended to previous track

Used output format : User Defined EncoderSelected bitrate : 768 kBit/sQuality : HighAdd ID3 tag : YesCommand line compressor : C:\Program Files (x86)\Exact Audio Copy\FLAC\FLAC.EXEAdditional command line options : -6 -V -T "ARTIST=%artist%" -T "TITLE=%title%" -T "ALBUM=%albumtitle%" -T "DATE=%year%" -T "TRACKNUMBER=%tracknr%" -T "GENRE=%genre%" -T "COMMENT=%comment%" -T "BAND=%albuminterpret%" -T "ALBUMARTIST=%albuminterpret%" -T "COMPOSER=%composer%" %haslyrics%--tag-from-file=LYRICS="%lyricsfile%"%haslyrics% -T "DISCNUMBER=%cdnumber%" -T "TOTALDISCS=%totalcds%" -T "TOTALTRACKS=%numtracks%" %hascover%--picture="%coverfile%"%hascover% %source% -o %dest%

TOC of the extracted CD

Track | Start | Length | Start sector | End sector --------------------------------------------------------- 1 | 0:00.00 | 8:19.22 | 0 | 37446 2 | 8:19.22 | 2:18.51 | 37447 | 47847 3 | 10:37.73 | 3:21.15 | 47848 | 62937 4 | 13:59.13 | 2:56.05 | 62938 | 76142 5 | 16:55.18 | 5:04.32 | 76143 | 98974 6 | 21:59.50 | 3:11.68 | 98975 | 113367 7 | 25:11.43 | 4:08.20 | 113368 | 131987 8 | 29:19.63 | 2:50.15 | 131988 | 144752 9 | 32:10.03 | 3:02.33 | 144753 | 158435 10 | 35:12.36 | 6:08.41 | 158436 | 186076 11 | 41:21.02 | 3:18.43 | 186077 | 200969 12 | 44:39.45 | 5:27.69 | 200970 | 225563

Track 1

Filename D:\music\Toyah\Toyah\1980 - The Blue Meaning\01 - Ieya.wav

Pre-gap length 0:00:02.00

Peak level 100.0 % Extraction speed 1.1 X Track quality 99.9 % Test CRC EB6DEA23 Copy CRC EB6DEA23 Copy OK

Track 2

Filename D:\music\Toyah\Toyah\1980 - The Blue Meaning\02 - Spaced Walking.wav

Pre-gap length 0:00:01.57

Peak level 88.1 % Extraction speed 1.2 X Track quality 100.0 % Test CRC 00AAD98D Copy CRC 00AAD98D Copy OK

Track 3

Filename D:\music\Toyah\Toyah\1980 - The Blue Meaning\03 - Ghosts.wav

Peak level 100.0 % Extraction speed 1.1 X Track quality 99.9 % Test CRC D48C4A96 Copy CRC D48C4A96 Copy OK

Track 4

Filename D:\music\Toyah\Toyah\1980 - The Blue Meaning\04 - Mummies.wav

Pre-gap length 0:00:00.03

Peak level 100.0 % Extraction speed 1.4 X Track quality 100.0 % Test CRC 3541B231 Copy CRC 3541B231 Copy OK

Track 5

Filename D:\music\Toyah\Toyah\1980 - The Blue Meaning\05 - Blue Meanings.wav

Pre-gap length 0:00:00.72

Peak level 100.0 % Extraction speed 1.4 X Track quality 99.9 % Test CRC C0DDF281 Copy CRC C0DDF281 Copy OK

Track 6

Filename D:\music\Toyah\Toyah\1980 - The Blue Meaning\06 - Tiger Tiger.wav

Pre-gap length 0:00:01.57

Peak level 100.0 % Extraction speed 1.3 X Track quality 99.9 % Test CRC D6EA5D02 Copy CRC D6EA5D02 Copy OK

Track 7

Filename D:\music\Toyah\Toyah\1980 - The Blue Meaning\07 - Visions.wav

Pre-gap length 0:00:00.24

Peak level 100.0 % Extraction speed 1.7 X Track quality 100.0 % Test CRC 4D8B41AE Copy CRC 4D8B41AE Copy OK

Track 8

Filename D:\music\Toyah\Toyah\1980 - The Blue Meaning\08 - Insects.wav

Peak level 100.0 % Extraction speed 1.7 X Track quality 100.0 % Test CRC 99BE79C5 Copy CRC 99BE79C5 Copy OK

Track 9

Filename D:\music\Toyah\Toyah\1980 - The Blue Meaning\09 - Love Me.wav

Pre-gap length 0:00:03.40

Peak level 100.0 % Extraction speed 1.7 X Track quality 100.0 % Test CRC C8A365FD Copy CRC C8A365FD Copy OK

Track 10

Filename D:\music\Toyah\Toyah\1980 - The Blue Meaning\10 - She.wav

Peak level 100.0 % Extraction speed 2.0 X Track quality 100.0 % Test CRC DCAE549F Copy CRC DCAE549F Copy OK

Track 11

Filename D:\music\Toyah\Toyah\1980 - The Blue Meaning\11 - Sphinx.wav

Pre-gap length 0:00:04.58

Peak level 100.0 % Extraction speed 1.9 X Track quality 100.0 % Test CRC 524E98A7 Copy CRC 524E98A7 Copy OK

Track 12

Filename D:\music\Toyah\Toyah\1980 - The Blue Meaning\12 - Street Addict.wav

Pre-gap length 0:00:01.57

Peak level 100.0 % Extraction speed 2.2 X Track quality 100.0 % Test CRC 2D6F00AC Copy CRC 2D6F00AC Copy OK

No errors occurred

End of status report

---- CUETools DB Plugin V2.1.3

[CTDB TOCID: q5DSsTM08GIIVe0gQ6nzrA45TvI-] disk not present in database, Submit result: q5DSsTM08GIIVe0gQ6nzrA45TvI- has been uploaded

==== Log checksum 39ACB8B8A73F028BC8DAC5E091130DC26FB19CA215BB2E28C78D9BDE9930E4D7 ====
  
REM GENRE "New Wave"REM DATE 1980REM DISCID 890BBF0CREM COMMENT "ExactAudioCopy v1.0b3"PERFORMER "Toyah"TITLE "The Blue Meaning"FILE "Toyah\1980 - The Blue Meaning\01 - Ieya.wav" WAVE TRACK 01 AUDIO TITLE "Ieya" PERFORMER "Toyah" INDEX 01 00:00:00 TRACK 02 AUDIO TITLE "Spaced Walking" PERFORMER "Toyah" INDEX 00 08:17:40FILE "Toyah\1980 - The Blue Meaning\02 - Spaced Walking.wav" WAVE INDEX 01 00:00:00FILE "Toyah\1980 - The Blue Meaning\03 - Ghosts.wav" WAVE TRACK 03 AUDIO TITLE "Ghosts" PERFORMER "Toyah" INDEX 01 00:00:00 TRACK 04 AUDIO TITLE "Mummies" PERFORMER "Toyah" INDEX 00 03:21:12FILE "Toyah\1980 - The Blue Meaning\04 - Mummies.wav" WAVE INDEX 01 00:00:00 TRACK 05 AUDIO TITLE "Blue Meanings" PERFORMER "Toyah" INDEX 00 02:55:08FILE "Toyah\1980 - The Blue Meaning\05 - Blue Meanings.wav" WAVE INDEX 01 00:00:00 TRACK 06 AUDIO TITLE "Tiger Tiger" PERFORMER "Toyah" INDEX 00 05:02:50FILE "Toyah\1980 - The Blue Meaning\06 - Tiger Tiger.wav" WAVE INDEX 01 00:00:00 TRACK 07 AUDIO TITLE "Visions" PERFORMER "Toyah" INDEX 00 03:11:44FILE "Toyah\1980 - The Blue Meaning\07 - Visions.wav" WAVE INDEX 01 00:00:00FILE "Toyah\1980 - The Blue Meaning\08 - Insects.wav" WAVE TRACK 08 AUDIO TITLE "Insects" PERFORMER "Toyah" INDEX 01 00:00:00 TRACK 09 AUDIO TITLE "Love Me" PERFORMER "Toyah" INDEX 00 02:46:50FILE "Toyah\1980 - The Blue Meaning\09 - Love Me.wav" WAVE INDEX 01 00:00:00FILE "Toyah\1980 - The Blue Meaning\10 - She.wav" WAVE TRACK 10 AUDIO TITLE "She" PERFORMER "Toyah" INDEX 01 00:00:00 TRACK 11 AUDIO TITLE "Sphinx" PERFORMER "Toyah" INDEX 00 06:03:58FILE "Toyah\1980 - The Blue Meaning\11 - Sphinx.wav" WAVE INDEX 01 00:00:00 TRACK 12 AUDIO TITLE "Street Addict" PERFORMER "Toyah" INDEX 00 03:16:61FILE "Toyah\1980 - The Blue Meaning\12 - Street Addict.wav" WAVE INDEX 01 00:00:00
The Blue Meaning is the second album by Toyah, released in 1980 by Safari Records. Although not the first full-length release, this is often considered to be the band's first "proper" album.
Toyah Willcox - verbals + unusual sounds
Joel Bogen - guitar
Pete Bush - keyboards, trumpet
Charlie Francis - bass guitar
Steve Bray - drums


Трекер:  [ 05-Июл-2012 08:23 ]

  

Скачать .torrent

Размер .torrent файла 15 KB


Размер: 352 MB
Хэш (hash) релиза: 99b86803edad6b5857824b9c0b8f8ee4648634e5

Еще никто не оставлял запись к записи скачать торрент Toyah - The Blue Meaning - 1980 . Будь первым!

!Обратная связь