Скачать через торрент музыку The Beatles - Forever бесплатно без регистрации torrent

Если у вас наблюдаются проблемы со скриншотами, переходом по ссылками, скачиванием торрентов - проблемы в блокировщике рекламы AdBlock. #хорошегоДня!


Статистика раздачи
Размер:  1.1 GB   |    Зарегистрирован:  5 лет 1 месяц   |    .torrent скачан:  44 раза   |   
Раздают:  1  
   
Загрузка...
 
Автор Сообщение

Umakiro

avatar Umakiro


The Beatles - Forever (2CD)

Жанр: Classic Rock
Страна-производитель диска: Россия
Год издания: 2008
Аудиокодек: FLAC (*.flac)
Тип рипа: image+.cue
Битрейт аудио: lossless
Продолжительность: (CD 1- 01:18:00) (CD 2- 01:19:03)
Источник (релизер): soroking
Наличие сканов в содержимом раздачи: да
01. A Hard Day's Night
02. I Should Have Known Better
03. Please Please Me
04. Love Me Do
05. I Need You
06. I Saw Her Standing There
07. O From Me To You
08. I Want To Hold Your Hand
09. Day Tripper
10. Nowhere Man
11. All My Loving
12. I'll Follow The Sun
13. For No One
14. Michelle
15. Here,There And Everywhere
16. Girl
17. I Feel Fine
18. Can't Buy Me Love
19. Help!
20. Taxman
21. Yellow Submarine
22. Paperback Writer
23. Eleanor Rigby
24. Run For Your Life
25. The Night Before
26. Words Of Love
27. I'll Cry Instead
28. She Loves You
29. Till There Was You
30. Got To Get You Into My Life
31. We Can Work It Out
32. And I Love Her
33. Yesterday
Exact Audio Copy V1.0 beta 3 from 29. August 2011

Отчёт EAC об извлечении, выполненном 30. июня 2012, 10:51

The Beatles / Forever (2CD)

Дисковод: ASUS DVD-E818A4 Adapter: 0 ID: 1

Режим чтения : Достоверность
Использование точного потока : Да
Отключение кэша аудио : Да
Использование указателей C2 : Нет

Коррекция смещения при чтении : 6
Способность читать области Lead-in и Lead-out : Нет
Заполнение пропущенных сэмплов тишиной : Да
Удаление блоков с тишиной в начале и конце : Нет
При вычислениях CRC использовались нулевые сэмплы : Да
Интерфейс : Встроенный Win32-интерфейс для Win NT/2000

Выходной формат : Внутренние WAV-операции
Формат сэмплов : 44.100 Гц; 16 бит; стерео

TOC извлечённого CD

Трек | Старт | Длительность | Начальный сектор | Конечный сектор
---------------------------------------------------------------------
1 | 0:00.00 | 2:34.15 | 0 | 11564
2 | 2:34.15 | 2:43.06 | 11565 | 23795
3 | 5:17.21 | 2:00.64 | 23796 | 32859
4 | 7:18.10 | 2:21.52 | 32860 | 43486
5 | 9:39.62 | 2:28.59 | 43487 | 54645
6 | 12:08.46 | 2:53.71 | 54646 | 67691
7 | 15:02.42 | 1:59.08 | 67692 | 76624
8 | 17:01.50 | 2:28.40 | 76625 | 87764
9 | 19:30.15 | 2:49.22 | 87765 | 100461
10 | 22:19.37 | 2:43.52 | 100462 | 112738
11 | 25:03.14 | 2:07.64 | 112739 | 122327
12 | 27:11.03 | 1:48.64 | 122328 | 130491
13 | 28:59.67 | 1:59.61 | 130492 | 139477
14 | 30:59.53 | 2:42.28 | 139478 | 151655
15 | 33:42.06 | 2:24.66 | 151656 | 162521
16 | 36:06.72 | 2:31.54 | 162522 | 173900
17 | 38:38.51 | 2:21.51 | 173901 | 184526
18 | 41:00.27 | 2:11.65 | 184527 | 194416
19 | 43:12.17 | 2:19.42 | 194417 | 204883
20 | 45:31.59 | 2:38.64 | 204884 | 216797
21 | 48:10.48 | 2:38.66 | 216798 | 228713
22 | 50:49.39 | 2:19.05 | 228714 | 239143
23 | 53:08.44 | 2:06.40 | 239144 | 248633
24 | 55:15.09 | 2:21.07 | 248634 | 259215
25 | 57:36.16 | 2:34.70 | 259216 | 270835
26 | 60:11.11 | 2:04.24 | 270836 | 280159
27 | 62:15.35 | 1:45.74 | 280160 | 288108
28 | 64:01.34 | 2:23.25 | 288109 | 298858
29 | 66:24.59 | 2:13.38 | 298859 | 308871
30 | 68:38.22 | 2:29.18 | 308872 | 320064
31 | 71:07.40 | 2:17.33 | 320065 | 330372
32 | 73:24.73 | 2:29.52 | 330373 | 341599
33 | 75:54.50 | 2:05.50 | 341600 | 351024

Характеристики диапазона извлечения и сообщения об ошибках

Выбранный диапазон

Имя файла E:\Музыка\The Beates-Forever (2CD)\CD 1\The Beatles - Forever (2CD).wav

Пиковый уровень 98.0 %
Скорость извлечения 8.7 X
Качество диапазона 100.0 %
CRC теста ED496F3B
CRC копии ED496F3B
Копирование... OK

Ошибок не произошло

AccurateRip: сводка

Трек 1 отсутствует в базе данных
Трек 2 отсутствует в базе данных
Трек 3 отсутствует в базе данных
Трек 4 отсутствует в базе данных
Трек 5 отсутствует в базе данных
Трек 6 отсутствует в базе данных
Трек 7 отсутствует в базе данных
Трек 8 отсутствует в базе данных
Трек 9 отсутствует в базе данных
Трек 10 отсутствует в базе данных
Трек 11 отсутствует в базе данных
Трек 12 отсутствует в базе данных
Трек 13 отсутствует в базе данных
Трек 14 отсутствует в базе данных
Трек 15 отсутствует в базе данных
Трек 16 отсутствует в базе данных
Трек 17 отсутствует в базе данных
Трек 18 отсутствует в базе данных
Трек 19 отсутствует в базе данных
Трек 20 отсутствует в базе данных
Трек 21 отсутствует в базе данных
Трек 22 отсутствует в базе данных
Трек 23 отсутствует в базе данных
Трек 24 отсутствует в базе данных
Трек 25 отсутствует в базе данных
Трек 26 отсутствует в базе данных
Трек 27 отсутствует в базе данных
Трек 28 отсутствует в базе данных
Трек 29 отсутствует в базе данных
Трек 30 отсутствует в базе данных
Трек 31 отсутствует в базе данных
Трек 32 отсутствует в базе данных
Трек 33 отсутствует в базе данных

Ни одного трека нет в базе AccurateRip

Конец отчёта
REM GENRE Rock
REM DATE 2008
REM DISCID C1124821
REM COMMENT ExactAudioCopy v1.0b3
PERFORMER "The Beatles"
TITLE "Forever (2CD)"
FILE "The Beatles - Forever (2CD) Disc 1.flac" WAVE
TRACK 01 AUDIO
TITLE "A Hard Day's Night"
FLAGS DCP
INDEX 01 00:00:00
TRACK 02 AUDIO
TITLE "I Should Have Known Better"
FLAGS DCP
INDEX 01 02:34:15
TRACK 03 AUDIO
TITLE "Please Please Me"
FLAGS DCP
INDEX 01 05:17:21
TRACK 04 AUDIO
TITLE "Love Me Do"
FLAGS DCP
INDEX 01 07:18:10
TRACK 05 AUDIO
TITLE "I Need You"
FLAGS DCP
INDEX 01 09:39:62
TRACK 06 AUDIO
TITLE "I Saw Her Standing There"
FLAGS DCP
INDEX 01 12:08:46
TRACK 07 AUDIO
TITLE "O From Me To You"
FLAGS DCP
INDEX 01 15:02:42
TRACK 08 AUDIO
TITLE "I Want To Hold Your Hand"
FLAGS DCP
INDEX 01 17:01:50
TRACK 09 AUDIO
TITLE "Day Tripper"
FLAGS DCP
INDEX 01 19:30:15
TRACK 10 AUDIO
TITLE "Nowhere Man"
FLAGS DCP
INDEX 01 22:19:37
TRACK 11 AUDIO
TITLE "All My Loving"
FLAGS DCP
INDEX 01 25:03:14
TRACK 12 AUDIO
TITLE "I'll Follow The Sun"
FLAGS DCP
INDEX 01 27:11:03
TRACK 13 AUDIO
TITLE "For No One"
FLAGS DCP
INDEX 01 28:59:67
TRACK 14 AUDIO
TITLE "Michelle"
FLAGS DCP
INDEX 01 30:59:53
TRACK 15 AUDIO
TITLE "Here,There And Everywhere"
FLAGS DCP
INDEX 01 33:42:06
TRACK 16 AUDIO
TITLE "Girl"
FLAGS DCP
INDEX 01 36:06:72
TRACK 17 AUDIO
TITLE "I Feel Fine"
FLAGS DCP
INDEX 01 38:38:51
TRACK 18 AUDIO
TITLE "Can't Buy Me Love"
FLAGS DCP
INDEX 01 41:00:27
TRACK 19 AUDIO
TITLE "Help!"
FLAGS DCP
INDEX 01 43:12:17
TRACK 20 AUDIO
TITLE "Taxman"
FLAGS DCP
INDEX 01 45:31:59
TRACK 21 AUDIO
TITLE "Yellow Submarine"
FLAGS DCP
INDEX 01 48:10:48
TRACK 22 AUDIO
TITLE "Paperback Writer"
FLAGS DCP
INDEX 01 50:49:39
TRACK 23 AUDIO
TITLE "Eleanor Rigby"
FLAGS DCP
INDEX 01 53:08:44
TRACK 24 AUDIO
TITLE "Run For Your Life"
FLAGS DCP
INDEX 01 55:15:09
TRACK 25 AUDIO
TITLE "The Night Before"
FLAGS DCP
INDEX 01 57:36:16
TRACK 26 AUDIO
TITLE "Words Of Love"
FLAGS DCP
INDEX 01 60:11:11
TRACK 27 AUDIO
TITLE "I'll Cry Instead"
FLAGS DCP
INDEX 01 62:15:35
TRACK 28 AUDIO
TITLE "She Loves You"
FLAGS DCP
INDEX 01 64:01:34
TRACK 29 AUDIO
TITLE "Till There Was You"
FLAGS DCP
INDEX 01 66:24:59
TRACK 30 AUDIO
TITLE "Got To Get You Into My Life"
FLAGS DCP
INDEX 01 68:38:22
TRACK 31 AUDIO
TITLE "We Can Work It Out"
FLAGS DCP
INDEX 01 71:07:40
TRACK 32 AUDIO
TITLE "And I Love Her"
FLAGS DCP
INDEX 01 73:24:73
TRACK 33 AUDIO
TITLE "Yesterday"
FLAGS DCP
INDEX 01 75:54:50
AUDIOCHECKER v2.0 beta (build 457) - by Dester - <a href="mailto:opdester@freemail.hu" class="postLink">opdester@freemail.hu</a>
~~~~~~~~~~~~~~~~~~~~~~~~~~~~~~~~~~

Начато: суббота, 30. 06. 2012. - 13:43.21
Найдено файлов: 2

1 -===- E:\Музыка\The Beates-Forever (2CD)\CD 1\The Beatles - Forever (2CD).flac
Извлечение успешно выполнено
Заключение: этот трек - CDDA с вероятностью 100%
Временный файл удалён.
01. Back In The U.S.S.R.
02. Glass Onion
03. Ob-La-Di,Ob-La-Da
04. Rocky Raccon
05. Mother Nature's Son
06. Sexy Sadie
07. Honey Pie
08. All You Need Is Love
09. Lady Madonna
10. Maxwell's Silverhammer
11. Octopus's Garden
12. Don't Let Me Down
13. Come Together
14. Something
15. Here Comes The Sun
16. Hey Jude
17. Magical Mystery Tour
18. The Fool On The Hill
19. Your Mother Should Know
20. When I'm Sixty-Four
21. Strawberry Fields Forever
22. Penny Lane
23. With A Little Help From My Friends
24. Let It Be
Exact Audio Copy V1.0 beta 3 from 29. August 2011

Отчёт EAC об извлечении, выполненном 30. июня 2012, 13:31

The Beatles / Forever (2CD)

Дисковод: ASUS DRW-24B1LT Adapter: 2 ID: 1

Режим чтения : Достоверность
Использование точного потока : Да
Отключение кэша аудио : Да
Использование указателей C2 : Нет

Коррекция смещения при чтении : 6
Способность читать области Lead-in и Lead-out : Нет
Заполнение пропущенных сэмплов тишиной : Да
Удаление блоков с тишиной в начале и конце : Нет
При вычислениях CRC использовались нулевые сэмплы : Да
Интерфейс : Встроенный Win32-интерфейс для Win NT/2000

Выходной формат : Внутренние WAV-операции
Формат сэмплов : 44.100 Гц; 16 бит; стерео

TOC извлечённого CD

Трек | Старт | Длительность | Начальный сектор | Конечный сектор
---------------------------------------------------------------------
1 | 0:00.00 | 2:44.49 | 0 | 12348
2 | 2:44.49 | 2:17.63 | 12349 | 22686
3 | 5:02.37 | 3:08.72 | 22687 | 36858
4 | 8:11.34 | 3:33.08 | 36859 | 52841
5 | 11:44.42 | 2:48.02 | 52842 | 65443
6 | 14:32.44 | 3:15.20 | 65444 | 80088
7 | 17:47.64 | 2:42.12 | 80089 | 92250
8 | 20:30.01 | 3:50.29 | 92251 | 109529
9 | 24:20.30 | 2:19.44 | 109530 | 119998
10 | 26:39.74 | 3:27.69 | 119999 | 135592
11 | 30:07.68 | 2:50.54 | 135593 | 148396
12 | 32:58.47 | 3:37.46 | 148397 | 164717
13 | 36:36.18 | 4:19.71 | 164718 | 184213
14 | 40:56.14 | 3:02.22 | 184214 | 197885
15 | 43:58.36 | 3:05.55 | 197886 | 211815
16 | 47:04.16 | 7:11.70 | 211816 | 244210
17 | 54:16.11 | 2:50.08 | 244211 | 256968
18 | 57:06.19 | 2:59.08 | 256969 | 270401
19 | 60:05.27 | 2:28.31 | 270402 | 281532
20 | 62:33.58 | 2:39.50 | 281533 | 293507
21 | 65:13.33 | 4:07.24 | 293508 | 312056
22 | 69:20.57 | 3:00.67 | 312057 | 325623
23 | 72:21.49 | 2:37.70 | 325624 | 337468
24 | 74:59.44 | 4:03.02 | 337469 | 355695

Характеристики диапазона извлечения и сообщения об ошибках

Выбранный диапазон

Имя файла E:\Музыка\The Beates-Forever (2CD)\CD 2\The Beatles - Forever (2CD).wav

Пиковый уровень 96.6 %
Скорость извлечения 10.1 X
Качество диапазона 99.9 %
CRC теста A74B5D04
CRC копии A74B5D04
Копирование... OK

Ошибок не произошло

AccurateRip: сводка

Трек 1 отсутствует в базе данных
Трек 2 отсутствует в базе данных
Трек 3 отсутствует в базе данных
Трек 4 отсутствует в базе данных
Трек 5 отсутствует в базе данных
Трек 6 отсутствует в базе данных
Трек 7 отсутствует в базе данных
Трек 8 отсутствует в базе данных
Трек 9 отсутствует в базе данных
Трек 10 отсутствует в базе данных
Трек 11 отсутствует в базе данных
Трек 12 отсутствует в базе данных
Трек 13 отсутствует в базе данных
Трек 14 отсутствует в базе данных
Трек 15 отсутствует в базе данных
Трек 16 отсутствует в базе данных
Трек 17 отсутствует в базе данных
Трек 18 отсутствует в базе данных
Трек 19 отсутствует в базе данных
Трек 20 отсутствует в базе данных
Трек 21 отсутствует в базе данных
Трек 22 отсутствует в базе данных
Трек 23 отсутствует в базе данных
Трек 24 отсутствует в базе данных

Ни одного трека нет в базе AccurateRip

Конец отчёта
REM GENRE Rock
REM DATE 2008
REM DISCID 5B128618
REM COMMENT "ExactAudioCopy v1.0b3"
PERFORMER "The Beatles"
TITLE "Forever (2CD)"
FILE "The Beatles - Forever (2CD) Disc 2.flac" WAVE
TRACK 01 AUDIO
TITLE "Back In The U.S.S.R."
PERFORMER "The Beatles"
FLAGS DCP
INDEX 01 00:00:00
TRACK 02 AUDIO
TITLE "Glass Onion"
PERFORMER "The Beatles"
FLAGS DCP
INDEX 01 02:44:49
TRACK 03 AUDIO
TITLE "Ob-La-Di,Ob-La-Da"
PERFORMER "The Beatles"
FLAGS DCP
INDEX 01 05:02:37
TRACK 04 AUDIO
TITLE "Rocky Raccon"
PERFORMER "The Beatles"
FLAGS DCP
INDEX 01 08:11:34
TRACK 05 AUDIO
TITLE "Mother Nature's Son"
PERFORMER "The Beatles"
FLAGS DCP
INDEX 01 11:44:42
TRACK 06 AUDIO
TITLE "Sexy Sadie"
PERFORMER "The Beatles"
FLAGS DCP
INDEX 01 14:32:44
TRACK 07 AUDIO
TITLE "Honey Pie"
PERFORMER "The Beatles"
FLAGS DCP
INDEX 01 17:47:64
TRACK 08 AUDIO
TITLE "All You Need Is Love"
PERFORMER "The Beatles"
FLAGS DCP
INDEX 00 20:29:01
INDEX 01 20:30:01
TRACK 09 AUDIO
TITLE "Lady Madonna"
PERFORMER "The Beatles"
FLAGS DCP
INDEX 01 24:20:30
TRACK 10 AUDIO
TITLE "Maxwell's Silverhammer"
PERFORMER "The Beatles"
FLAGS DCP
INDEX 01 26:39:74
TRACK 11 AUDIO
TITLE "Octopus's Garden"
PERFORMER "The Beatles"
FLAGS DCP
INDEX 01 30:07:68
TRACK 12 AUDIO
TITLE "Don't Let Me Down"
PERFORMER "The Beatles"
FLAGS DCP
INDEX 01 32:58:47
TRACK 13 AUDIO
TITLE "Come Together"
PERFORMER "The Beatles"
FLAGS DCP
INDEX 01 36:36:18
TRACK 14 AUDIO
TITLE "Something"
PERFORMER "The Beatles"
FLAGS DCP
INDEX 01 40:56:14
TRACK 15 AUDIO
TITLE "Here Comes The Sun"
PERFORMER "The Beatles"
FLAGS DCP
INDEX 01 43:58:36
TRACK 16 AUDIO
TITLE "Hey Jude"
PERFORMER "The Beatles"
FLAGS DCP
INDEX 01 47:04:16
TRACK 17 AUDIO
TITLE "Magical Mystery Tour"
PERFORMER "The Beatles"
FLAGS DCP
INDEX 01 54:16:11
TRACK 18 AUDIO
TITLE "The Fool On The Hill"
PERFORMER "The Beatles"
FLAGS DCP
INDEX 01 57:06:19
TRACK 19 AUDIO
TITLE "Your Mother Should Know"
PERFORMER "The Beatles"
FLAGS DCP
INDEX 01 60:05:27
TRACK 20 AUDIO
TITLE "When I'm Sixty-Four"
PERFORMER "The Beatles"
FLAGS DCP
INDEX 01 62:33:58
TRACK 21 AUDIO
TITLE "Strawberry Fields Forever"
PERFORMER "The Beatles"
FLAGS DCP
INDEX 00 65:11:33
INDEX 01 65:13:33
TRACK 22 AUDIO
TITLE "Penny Lane"
PERFORMER "The Beatles"
FLAGS DCP
INDEX 01 69:20:57
TRACK 23 AUDIO
TITLE "With A Little Help From My Friends"
PERFORMER "The Beatles"
FLAGS DCP
INDEX 01 72:21:49
TRACK 24 AUDIO
TITLE "Let It Be"
PERFORMER "The Beatles"
FLAGS DCP
INDEX 00 74:58:44
INDEX 01 74:59:44
AUDIOCHECKER v2.0 beta (build 457) - by Dester - <a href="mailto:opdester@freemail.hu" class="postLink">opdester@freemail.hu</a>
~~~~~~~~~~~~~~~~~~~~~~~~~~~~~~~~~~

2 -===- E:\Музыка\The Beates-Forever (2CD)\CD 2\The Beatles - Forever (2CD).flac
Извлечение успешно выполнено
Заключение: этот трек - CDDA с вероятностью 100%
Временный файл удалён.

Завершено: суббота, 30. 06. 2012. - 13:56.05 (Время операции: 0:12.44)


Трекер:  [ 05-Июл-2012 08:23 ]

  

Скачать .torrent

Размер .torrent файла 12 KB


Размер: 1.1 GB
Хэш (hash) релиза: a4a21baf495671f4e4600d33065dbfff6527057c

Торренты, похожие на The Beatles - Forever скачать торрент

Форум Название Автор Размер S L Добавлен
Rосk | Mеtаl | Аltеrnаtivе, Рunk, Indереndеnt (mр3) ·· (Classic-Rock, Psychedelic Rock) The Beatles - Strawberry Fields Forever/Penny Lane (Remastered 2017) - 2017, MP3, 320 kbps Galfimbul 1874394918 MB 0 0 1497852312

09:05

19-Июн-17

Еще никто не оставлял запись к записи скачать торрент The Beatles - Forever . Будь первым!

!Обратная связь