Скачать через торрент музыку Keven Jordan - Keven Jordan - 1994, FLAC бесплатно без регистрации torrent

Если у вас наблюдаются проблемы со скриншотами, переходом по ссылками, скачиванием торрентов - проблемы в блокировщике рекламы AdBlock. #хорошегоДня!


Статистика раздачи
Размер:  310 MB   |    Зарегистрирован:  5 лет 1 месяц   |    .torrent скачан:  14 раз   |   
Раздают:  1  
   
Загрузка...
 
Автор Сообщение

Umakiro

avatar Umakiro


Keven Jordan / Keven Jordan
Жанр: Westcoast/AOR
Страна-производитель диска: Canada
Год издания: 1994
Издатель (лейбл): Sony Music Entertainment (Canada) Inc./Columbia
Номер по каталогу: CK 80194
Страна: Canada
Аудиокодек: FLAC (*.flac)
Тип рипа: image+.cue
Битрейт аудио: lossless
Продолжительность: 44:44
Источник (релизер): whiteLion90
Наличие сканов в содержимом раздачи: да
Треклист:
01 - Broadway Joe [04:27]
02 - Who Knows [04:38]
03 - Say The Word [04:09]
04 - Mistaken [04:42]
05 - So Far [04:19]
06 - More Than Enough [04:59]
07 - This Is Our Time [04:17]
08 - Bought & Sold [03:37]
09 - Here I Go [05:15]
10 - Still In Wonder [04:16]
  
EAC extraction logfile from 9. May 2011, 13:01 for CDKeven Jordan / Keven Jordan

Used drive : _NEC DVD_RW ND-3550A Adapter: 0 ID: 0 LUN: 0Read mode : Secure with NO C2, accurate stream, disable cacheRead offset correction : 48Overread into Lead-In and Lead-Out : No

Used output format : Internal WAV Routines 44.100 Hz; 16 Bit; Stereo

Other options : Fill up missing offset samples with silence : Yes Delete leading and trailing silent blocks : No Native Win32 interface for Win NT & 2000

Range status and errorsSelected range Filename D:\Keven Jordan - Keven Jordan\CDImage.wav

Peak level 100.0 % Range quality 100.0 % CRC E238B66A Copy OK

No errors occured

End of status report
  
PERFORMER "Keven Jordan"TITLE "Keven Jordan"FILE "Keven Jordan - Keven Jordan.flac" WAVE TRACK 01 AUDIO TITLE "Broadway Joe" PERFORMER "Keven Jordan" INDEX 01 00:00:00 TRACK 02 AUDIO TITLE "Who Knows" PERFORMER "Keven Jordan" INDEX 00 04:27:42 INDEX 01 04:27:65 TRACK 03 AUDIO TITLE "Say The Word" PERFORMER "Keven Jordan" INDEX 00 09:05:02 INDEX 01 09:06:05 TRACK 04 AUDIO TITLE "Mistaken" PERFORMER "Keven Jordan" INDEX 00 13:14:62 INDEX 01 13:15:52 TRACK 05 AUDIO TITLE "So Far" PERFORMER "Keven Jordan" INDEX 00 17:57:15 INDEX 01 17:58:37 TRACK 06 AUDIO TITLE "More Than Enough" PERFORMER "Keven Jordan" INDEX 00 22:16:60 INDEX 01 22:18:00 TRACK 07 AUDIO TITLE "This Is Our Time" PERFORMER "Keven Jordan" INDEX 00 27:16:42 INDEX 01 27:17:55 TRACK 08 AUDIO TITLE "Bought & Sold " PERFORMER "Keven Jordan" INDEX 00 31:34:72 INDEX 01 31:35:15 TRACK 09 AUDIO TITLE "Here I Go" PERFORMER "Keven Jordan" INDEX 00 35:11:12 INDEX 01 35:12:45 TRACK 10 AUDIO TITLE "Still In Wonder" PERFORMER "Keven Jordan" INDEX 00 40:26:42 INDEX 01 40:28:25


Трекер:  [ 05-Июл-2012 08:23 ]

  

Скачать .torrent

Размер .torrent файла 13 KB


Размер: 310 MB
Хэш (hash) релиза: 9530521e203a28ff26e7d33192b75100d2156bd4

Еще никто не оставлял запись к записи скачать торрент Keven Jordan - Keven Jordan - 1994, FLAC . Будь первым!

!Обратная связь