Скачать через торрент музыку Jonathan M - Jonathan M - 1994, FLAC бесплатно без регистрации torrent

Если у вас наблюдаются проблемы со скриншотами, переходом по ссылками, скачиванием торрентов - проблемы в блокировщике рекламы AdBlock. #хорошегоДня!


Статистика раздачи
Размер:  316 MB   |    Зарегистрирован:  5 лет 1 месяц   |    .torrent скачан:  14 раз   |   
Раздают:  1  
   
Загрузка...
 
Автор Сообщение

Umakiro

avatar Umakiro


Jonathan M / Jonathan M
Жанр: Melodic Rock/AOR
Страна-производитель диска: Canada
Год издания: 1994
Страна: Canada
Аудиокодек: FLAC (*.flac)
Тип рипа: image+.cue
Битрейт аудио: lossless
Продолжительность: 45:32
Источник (релизер): whiteLion90
Наличие сканов в содержимом раздачи: нет
Треклист:
01 - I'll See The Sun [03:49]
02 - Faith In You [03:50]
03 - Stars [04:40]
04 - You Walk On By [03:58]
05 - The Stranger [03:11]
06 - Heart Of Gold [04:15]
07 - I Believe [04:46]
08 - Tainted Love (Soft Cell cover) [03:52]
09 - Going To The Top [04:18]
10 - Hold On [04:19]
11 - Don't Forget Me [04:29]
  
Отчёт EAC об извлечении, выполненном 27. марта 2012, 12:40 для диска:Jonathan M / Jonathan M

Дисковод: ATAPI DVD A DH16ABSH Adapter: 0 ID: 1Режим чтения: Достоверный (C2: нет, Точный поток: да, Отключение кэша: нет)Комбинированное смещение чтения/записи: 0Способность читать области Lead-in и Lead-out : Нет

Выходной формат: Внутренние WAV-операции 44.100 Гц; 16 бит; стерео

Другие параметры: Заполнение пропущенных сэмплов тишиной : Да Удаление блоков с тишиной в начале и конце : Нет Установленный внешний ASPI-интерфейс

Характеристики диапазона извлечения и сообщения об ошибкахВыбранный диапазон Имя файла D:\Jonathan M - Jonathan M.wav

Пиковый уровень 98.8 % Качество диапазона 99.9 % CRC 49E2E0CB Копирование... OK

Ошибок не произошло

Конец отчёта
  
REM GENRE AORREM DATE 1994REM DISCID 900AAC0BREM COMMENT "ExactAudioCopy v0.95b4"PERFORMER "Jonathan M"TITLE "Jonathan M"FILE "Jonathan M - Jonathan M.wav" WAVE TRACK 01 AUDIO TITLE "I'll See The Sun" PERFORMER "Jonathan M" INDEX 01 00:00:00 TRACK 02 AUDIO TITLE "Faith In You" PERFORMER "Jonathan M" INDEX 01 03:49:60 TRACK 03 AUDIO TITLE "Stars" PERFORMER "Jonathan M" INDEX 01 07:40:52 TRACK 04 AUDIO TITLE "You Walk On By" PERFORMER "Jonathan M" INDEX 01 12:21:47 TRACK 05 AUDIO TITLE "The Stranger" PERFORMER "Jonathan M" INDEX 01 16:20:22 TRACK 06 AUDIO TITLE "Heart Of Gold" PERFORMER "Jonathan M" INDEX 00 19:29:65 INDEX 01 19:31:57 TRACK 07 AUDIO TITLE "I Believe" PERFORMER "Jonathan M" INDEX 00 23:44:22 INDEX 01 23:47:05 TRACK 08 AUDIO TITLE "Tainted Love (Soft Cell cover)" PERFORMER "Jonathan M" INDEX 00 28:31:37 INDEX 01 28:33:45 TRACK 09 AUDIO TITLE "Going To The Top" PERFORMER "Jonathan M" INDEX 00 32:26:13 INDEX 01 32:26:40 TRACK 10 AUDIO TITLE "Hold On" PERFORMER "Jonathan M" INDEX 00 36:43:04 INDEX 01 36:44:50 TRACK 11 AUDIO TITLE "Don't Forget Me" PERFORMER "Jonathan M" INDEX 00 41:01:63 INDEX 01 41:03:52


Трекер:  [ 05-Июл-2012 08:23 ]

  

Скачать .torrent

Размер .torrent файла 13 KB


Размер: 316 MB
Хэш (hash) релиза: 1a124e48b2818561cb3f28bbab02789056e957b3

Еще никто не оставлял запись к записи скачать торрент Jonathan M - Jonathan M - 1994, FLAC . Будь первым!

!Обратная связь