Скачать через торрент музыку Maroon 5 - Overexposed бесплатно без регистрации torrent

Если у вас наблюдаются проблемы со скриншотами, переходом по ссылками, скачиванием торрентов - проблемы в блокировщике рекламы AdBlock. #хорошегоДня!


Статистика раздачи
Размер:  516 MB   |    Зарегистрирован:  5 лет 1 месяц   |    .torrent скачан:  64 раза   |   
Раздают:  1  
   
Загрузка...
 
Автор Сообщение

Umakiro

avatar Umakiro


Maroon 5 / Overexposed

Жанр: Pop/Soft-Rock
Страна-производитель диска: Japan
Год издания: 2012
Издатель (лейбл): Universal Music Japan
Номер по каталогу: UICA-1062 (0571565)
Страна: US
Аудиокодек: FLAC (*.flac)
Тип рипа: tracks+.cue
Битрейт аудио: lossless
Продолжительность: 72:45
Источник (релизер): mygully.com (fwtf)
Наличие сканов в содержимом раздачи: нет
Треклист:
01. One More Night
02. Payphone (Feat. Wiz Khalifa)
03. Daylight
04. Lucky Strike
05. The Man Who Never Lied
06. Love Some Body
07. Lady Killer
08. Fortune Teller
09. Sad
10. Tickets
11. Doin Dirt
12. Beautiful Goodbye
13. Wipe Your Eyes
14. Wasted Year
15. Kiss
16. Moves Like Jagger (Feat. Christina Aguilera) (Studio Recording From The Voice)
17. Payphone (Supreme Cuts Remix)
18. Payphone (Cutmore Remix)
19. Payphone (Sound of Arrows Remix)
  
xact Audio Copy V1.0 beta 3 from 29. August 2011

EAC extraction logfile from 30. June 2012, 3:56

Maroon 5 / Overexposed

Used drive : HL-DT-STDVDRAM GH24NS70 Adapter: 2 ID: 1

Read mode : SecureUtilize accurate stream : YesDefeat audio cache : YesMake use of C2 pointers : No

Read offset correction : 667Overread into Lead-In and Lead-Out : NoFill up missing offset samples with silence : YesDelete leading and trailing silent blocks : NoNull samples used in CRC calculations : YesUsed interface : Native Win32 interface for Win NT & 2000Gap handling : Appended to previous track

Used output format : User Defined EncoderSelected bitrate : 1024 kBit/sQuality : HighAdd ID3 tag : NoCommand line compressor : C:\Program Files\Exact Audio Copy\Flac\flac.exeAdditional command line options : 8 -V -T "ARTIST=%artist%" -T "TITLE=%title%" -T "ALBUM=%albumtitle%" -T "DATE=%year%" -T "TRACKNUMBER=%tracknr%" -T "GENRE=%genre%" -T "PERFORMER=%albuminterpret%" -T "COMPOSER=%composer%" %haslyrics%--tag-from-file=LYRICS="%lyricsfile%"%haslyrics% -T "ALBUMARTIST=%albumartist%" -T "ALBUM ARTIST=%albumartist%" -T "DISCNUMBER=%cdnumber%" -T "TOTALDISCS=%totalcds%" -T "TOTALTRACKS=%numtracks%" -T "COMMENT=ExactAudioCopy 1.0b2" %source% -o %dest%

TOC of the extracted CD

Track | Start | Length | Start sector | End sector---------------------------------------------------------1 | 0:00.00 | 3:39.35 | 0 | 164592 | 3:39.35 | 3:51.48 | 16460 | 338323 | 7:31.08 | 3:45.64 | 33833 | 507714 | 11:16.72 | 3:05.21 | 50772 | 646675 | 14:22.18 | 3:25.15 | 64668 | 800576 | 17:47.33 | 3:49.62 | 80058 | 972947 | 21:37.20 | 2:43.73 | 97295 | 1095928 | 24:21.18 | 3:24.08 | 109593 | 1249009 | 27:45.26 | 3:14.36 | 124901 | 13948610 | 30:59.62 | 3:29.01 | 139487 | 15516211 | 34:28.63 | 3:31.32 | 155163 | 17101912 | 38:00.20 | 4:15.20 | 171020 | 19016413 | 42:15.40 | 3:34.64 | 190165 | 20627814 | 45:50.29 | 3:33.05 | 206279 | 22225815 | 49:23.34 | 7:00.69 | 222259 | 25382716 | 56:24.28 | 3:22.44 | 253828 | 26902117 | 59:46.72 | 4:42.03 | 269022 | 29017418 | 64:29.00 | 3:12.48 | 290175 | 30462219 | 67:41.48 | 5:03.24 | 304623 | 327371

Track 1

Filename C:\Documents and Settings\Administrator\바탕 화면\01 One More Night.wav

Pre-gap length 0:00:02.00

Peak level 99.8 %Extraction speed 1.0 XTrack quality 99.9 %Test CRC AABE373DCopy CRC AABE373DTrack not present in AccurateRip databaseCopy OK

Track 2

Filename C:\Documents and Settings\Administrator\바탕 화면\02 Payphone (Feat. Wiz Khalifa).wav

Peak level 99.8 %Extraction speed 1.2 XTrack quality 100.0 %Test CRC 0F4DA837Copy CRC 0F4DA837Track not present in AccurateRip databaseCopy OK

Track 3

Filename C:\Documents and Settings\Administrator\바탕 화면\03 Daylight.wav

Pre-gap length 0:00:00.25

Peak level 99.8 %Extraction speed 1.4 XTrack quality 100.0 %Test CRC ACF6C7E1Copy CRC ACF6C7E1Track not present in AccurateRip databaseCopy OK

Track 4

Filename C:\Documents and Settings\Administrator\바탕 화면\04 Lucky Strike.wav

Pre-gap length 0:00:00.45

Peak level 99.8 %Extraction speed 1.2 XTrack quality 99.9 %Test CRC B5120419Copy CRC B5120419Track not present in AccurateRip databaseCopy OK

Track 5

Filename C:\Documents and Settings\Administrator\바탕 화면\05 The Man Who Never Lied.wav

Peak level 99.8 %Extraction speed 1.3 XTrack quality 99.9 %Test CRC 43ACD3B0Copy CRC 43ACD3B0Track not present in AccurateRip databaseCopy OK

Track 6

Filename C:\Documents and Settings\Administrator\바탕 화면\06 Love Some Body.wav

Peak level 99.8 %Extraction speed 1.6 XTrack quality 100.0 %Test CRC 40927F08Copy CRC 40927F08Track not present in AccurateRip databaseCopy OK

Track 7

Filename C:\Documents and Settings\Administrator\바탕 화면\07 Lady Killer.wav

Peak level 99.8 %Extraction speed 1.3 XTrack quality 99.9 %Test CRC A3499680Copy CRC A3499680Track not present in AccurateRip databaseCopy OK

Track 8

Filename C:\Documents and Settings\Administrator\바탕 화면\08 Fortune Teller.wav

Peak level 99.7 %Extraction speed 1.7 XTrack quality 100.0 %Test CRC 507CCBA0Copy CRC 507CCBA0Track not present in AccurateRip databaseCopy OK

Track 9

Filename C:\Documents and Settings\Administrator\바탕 화면\09 Sad.wav

Pre-gap length 0:00:00.65

Peak level 99.8 %Extraction speed 1.7 XTrack quality 100.0 %Test CRC C2F18C73Copy CRC C2F18C73Track not present in AccurateRip databaseCopy OK

Track 10

Filename C:\Documents and Settings\Administrator\바탕 화면\10 Tickets.wav

Pre-gap length 0:00:00.22

Peak level 99.8 %Extraction speed 1.8 XTrack quality 100.0 %Test CRC ED2FA937Copy CRC ED2FA937Track not present in AccurateRip databaseCopy OK

Track 11

Filename C:\Documents and Settings\Administrator\바탕 화면\11 Doin Dirt.wav

Peak level 99.8 %Extraction speed 1.9 XTrack quality 100.0 %Test CRC 6F7A28A5Copy CRC 6F7A28A5Track not present in AccurateRip databaseCopy OK

Track 12

Filename C:\Documents and Settings\Administrator\바탕 화면\12 Beautiful Goodbye.wav

Peak level 99.8 %Extraction speed 1.8 XTrack quality 99.9 %Test CRC 80F83377Copy CRC 80F83377Track not present in AccurateRip databaseCopy OK

Track 13

Filename C:\Documents and Settings\Administrator\바탕 화면\13 Wipe Your Eyes.wav

Peak level 99.8 %Extraction speed 2.1 XTrack quality 100.0 %Test CRC 88A81D09Copy CRC 88A81D09Track not present in AccurateRip databaseCopy OK

Track 14

Filename C:\Documents and Settings\Administrator\바탕 화면\14 Wasted Year.wav

Peak level 99.8 %Extraction speed 2.1 XTrack quality 100.0 %Test CRC DAD957ACCopy CRC DAD957ACTrack not present in AccurateRip databaseCopy OK

Track 15

Filename C:\Documents and Settings\Administrator\바탕 화면\15 Kiss.wav

Pre-gap length 0:00:00.40

Peak level 100.0 %Extraction speed 2.4 XTrack quality 100.0 %Test CRC 40C4F0DDCopy CRC 40C4F0DDTrack not present in AccurateRip databaseCopy OK

Track 16

Filename C:\Documents and Settings\Administrator\바탕 화면\16 Moves Like Jagger (Feat. Christina Aguilera) (Studio Recording From The Voice).wav

Peak level 96.6 %Extraction speed 2.3 XTrack quality 100.0 %Test CRC 1334BFF6Copy CRC 1334BFF6Track not present in AccurateRip databaseCopy OK

Track 17

Filename C:\Documents and Settings\Administrator\바탕 화면\17 Payphone (Supreme Cuts Remix).wav

Pre-gap length 0:00:01.04

Peak level 97.7 %Extraction speed 2.4 XTrack quality 100.0 %Test CRC 3A80EE60Copy CRC 3A80EE60Track not present in AccurateRip databaseCopy OK

Track 18

Filename C:\Documents and Settings\Administrator\바탕 화면\18 Payphone (Cutmore Remix).wav

Pre-gap length 0:00:01.05

Peak level 97.7 %Extraction speed 2.4 XTrack quality 100.0 %Test CRC E4E25124Copy CRC E4E25124Track not present in AccurateRip databaseCopy OK

Track 19

Filename C:\Documents and Settings\Administrator\바탕 화면\19 Payphone (Sound of Arrows Remix).wav

Pre-gap length 0:00:01.02

Peak level 97.7 %Extraction speed 2.6 XTrack quality 100.0 %Test CRC 50FE1715Copy CRC 50FE1715Track not present in AccurateRip databaseCopy OK

None of the tracks are present in the AccurateRip database

No errors occurred

End of status report

==== Log checksum 09AC4C1AAC35BF0E53DADBA1D3EB4ECDE51C59320097C5DFAD 8A696B2C05BC22 ====
  
REM GENRE PopREM DATE 2012REM DISCID 2C110C13REM COMMENT "ExactAudioCopy v1.0b3"PERFORMER "Maroon 5"TITLE "Overexposed"FILE "01 One More Night.wav" WAVETRACK 01 AUDIOTITLE "One More Night"PERFORMER "Maroon 5"INDEX 01 00:00:00FILE "02 Payphone (Feat. Wiz Khalifa).wav" WAVETRACK 02 AUDIOTITLE "Payphone (Feat. Wiz Khalifa)"PERFORMER "Maroon 5"INDEX 01 00:00:00TRACK 03 AUDIOTITLE "Daylight"PERFORMER "Maroon 5"INDEX 00 03:51:29FILE "03 Daylight.wav" WAVEINDEX 01 00:00:00TRACK 04 AUDIOTITLE "Lucky Strike"PERFORMER "Maroon 5"INDEX 00 03:45:30FILE "04 Lucky Strike.wav" WAVEINDEX 01 00:00:00FILE "05 The Man Who Never Lied.wav" WAVETRACK 05 AUDIOTITLE "The Man Who Never Lied"PERFORMER "Maroon 5"INDEX 01 00:00:00FILE "06 Love Some Body.wav" WAVETRACK 06 AUDIOTITLE "Love Some Body"PERFORMER "Maroon 5"INDEX 01 00:00:00FILE "07 Lady Killer.wav" WAVETRACK 07 AUDIOTITLE "Lady Killer"PERFORMER "Maroon 5"INDEX 01 00:00:00FILE "08 Fortune Teller.wav" WAVETRACK 08 AUDIOTITLE "Fortune Teller"PERFORMER "Maroon 5"INDEX 01 00:00:00TRACK 09 AUDIOTITLE "Sad"PERFORMER "Maroon 5"INDEX 00 03:23:34FILE "09 Sad.wav" WAVEINDEX 01 00:00:00TRACK 10 AUDIOTITLE "Tickets"PERFORMER "Maroon 5"INDEX 00 03:14:19FILE "10 Tickets.wav" WAVEINDEX 01 00:00:00FILE "11 Doin Dirt.wav" WAVETRACK 11 AUDIOTITLE "Doin Dirt"PERFORMER "Maroon 5"INDEX 01 00:00:00FILE "12 Beautiful Goodbye.wav" WAVETRACK 12 AUDIOTITLE "Beautiful Goodbye"PERFORMER "Maroon 5"INDEX 01 00:00:00FILE "13 Wipe Your Eyes.wav" WAVETRACK 13 AUDIOTITLE "Wipe Your Eyes"PERFORMER "Maroon 5"INDEX 01 00:00:00FILE "14 Wasted Year.wav" WAVETRACK 14 AUDIOTITLE "Wasted Year"PERFORMER "Maroon 5"INDEX 01 00:00:00TRACK 15 AUDIOTITLE "Kiss"PERFORMER "Maroon 5"INDEX 00 03:32:50FILE "15 Kiss.wav" WAVEINDEX 01 00:00:00FILE "16 Moves Like Jagger (Feat. Christina Aguilera) (Studio Recording From The Voice).wav" WAVETRACK 16 AUDIOTITLE "Moves Like Jagger (Feat. Christina Aguilera) (Studio Recording From The Voice)"PERFORMER "Maroon 5"INDEX 01 00:00:00TRACK 17 AUDIOTITLE "Payphone (Supreme Cuts Remix)"PERFORMER "Maroon 5"INDEX 00 03:21:41FILE "17 Payphone (Supreme Cuts Remix).wav" WAVEINDEX 01 00:00:00TRACK 18 AUDIOTITLE "Payphone (Cutmore Remix)"PERFORMER "Maroon 5"INDEX 00 04:40:74FILE "18 Payphone (Cutmore Remix).wav" WAVEINDEX 01 00:00:00TRACK 19 AUDIOTITLE "Payphone (Sound of Arrows Remix)"PERFORMER "Maroon 5"INDEX 00 03:11:46FILE "19 Payphone (Sound of Arrows Remix).wav" WAVEINDEX 01 00:00:00


Трекер:  [ 03-Июл-2012 17:49 ]

  

Скачать .torrent

Размер .torrent файла 11 KB


Размер: 516 MB
Хэш (hash) релиза: af5fae3c02abf0ad5f43a261024d0a1cdb668984

Торренты, похожие на Maroon 5 - Overexposed скачать торрент

Форум Название Автор Размер S L Добавлен
Зарубежный Rock ·· (Pop/Soft-Rock) Maroon 5 - Overexposed (Japan Edition) - 2012, MP3, 320 kbps Umakiro 174691435167 MB 0 0 1341326160

17:36

3-Июл-12

Зарубежный Rock ·· (Pop-Rock) Maroon 5 - Overexposed (Deluxe Edition) - 2012, MP3, 320 kbps Centner1 166270761159 MB 0 0 1340614080

11:48

25-Июн-12

Rосk | Mеtаl | Аltеrnаtivе, Рunk, Indереndеnt (losslеss) ·· (Pop-Rock) Maroon 5 - Overexposed (Deluxe Edition) - 2012, FLAC (image+.cue), lossless Umakiro 522698113498 MB 0 0 1340645280

20:28

25-Июн-12

Еще никто не оставлял запись к записи скачать торрент Maroon 5 - Overexposed . Будь первым!

!Обратная связь