Скачать через торрент музыку Sad Cafe - Whatever It Takes - 1992, FLAC бесплатно без регистрации torrent

Если у вас наблюдаются проблемы со скриншотами, переходом по ссылками, скачиванием торрентов - проблемы в блокировщике рекламы AdBlock. #хорошегоДня!


Статистика раздачи
Размер:  263 MB   |    Зарегистрирован:  5 лет 3 месяца   |    .torrent скачан:  15 раз   |   
Раздают:  1  
   
Загрузка...
 
Автор Сообщение

Umakiro

avatar Umakiro


Sad Cafe / Whatever It Takes

Жанр: Pop- rock
Страна-производитель диска: The E.E.C.
Год издания: 1992
Издатель (лейбл): Castle
Номер по каталогу: CLACD 273
Страна: UK
Аудиокодек: FLAC (*.flac)
Тип рипа: image+.cue
Битрейт аудио: lossless
Продолжительность: 40:51
Источник (релизер): CD
Наличие сканов в содержимом раздачи: да
Треклист:
01 Whatever It Takes
02 So Cold
03 This Heart's On Fire
04 Take Me (Heart And Soul)
05 Stay With Me Tonight
06 Blood On The Sand
07 Don't Give Up On Love
08 Universe
09 Don't Walk Out On Me
10 Back To Zero
  
Exact Audio Copy V1.0 beta 2 from 29. April 2011

Отчёт EAC об извлечении, выполненном 30. июня 2012, 23:50

Sad Cafe / Whatever It Takes

Дисковод: Optiarc DVD RW AD-7260S Adapter: 0 ID: 1

Режим чтения : ДостоверностьИспользование точного потока : ДаОтключение кэша аудио : ДаИспользование указателей C2 : Нет

Коррекция смещения при чтении : 48Способность читать области Lead-in и Lead-out : НетЗаполнение пропущенных сэмплов тишиной : ДаУдаление блоков с тишиной в начале и конце : НетПри вычислениях CRC использовались нулевые сэмплы : ДаИнтерфейс : Встроенный Win32-интерфейс для Win NT/2000

Выходной формат : Пользовательский кодировщикВыбранный битрейт : 128 kBit/sКачество : ВысокийДобавление ID3-тега : НетУтилита сжатия : C:\Program Files\Exact Audio Copy\FLAC\FLAC.EXEДополнительные параметры : -6 -V -T "ARTIST=%artist%" -T "TITLE=%title%" -T "ALBUM=%albumtitle%" -T "DATE=%year%" -T "TRACKNUMBER=%tracknr%" -T "GENRE=%genre%" -T "COMMENT=%comment%" -T "BAND=%albuminterpret%" -T "COMPOSER=%composer%" %haslyrics%--tag-from-

TOC извлечённого CD

Трек | Старт | Длительность | Начальный сектор | Конечный сектор --------------------------------------------------------------------- 1 | 0:00.32 | 4:09.35 | 32 | 18741 2 | 4:09.67 | 3:22.13 | 18742 | 33904 3 | 7:32.05 | 4:17.07 | 33905 | 53186 4 | 11:49.12 | 3:49.70 | 53187 | 70431 5 | 15:39.07 | 3:49.70 | 70432 | 87676 6 | 19:29.02 | 4:21.40 | 87677 | 107291 7 | 23:50.42 | 4:13.28 | 107292 | 126294 8 | 28:03.70 | 3:43.40 | 126295 | 143059 9 | 31:47.35 | 4:40.22 | 143060 | 164081 10 | 36:27.57 | 4:24.38 | 164082 | 183919

Характеристики диапазона извлечения и сообщения об ошибках

Выбранный диапазон

Имя файла D:\FLAC\Sad Cafe - Whatever It Takes - 1992.wav

Пиковый уровень 90.0 % Скорость извлечения 3.6 X Качество диапазона 100.0 % CRC теста EDC5DC29 CRC копии EDC5DC29 Копирование... OK

Ошибок не произошло

Конец отчёта

==== Контрольная сумма отчёта 44666BCA534DA20ADB3B5FF5A7679A5B9F318B382EC60D7F1295CFDBA9E78C74 ====


Трекер:  [ 03-Июл-2012 17:49 ]

  

Скачать .torrent

Размер .torrent файла 11 KB


Размер: 263 MB
Хэш (hash) релиза: 4de595ee667791d56154c3e9200222d19f9f531a

Еще никто не оставлял запись к записи скачать торрент Sad Cafe - Whatever It Takes - 1992, FLAC . Будь первым!

!Обратная связь