Скачать через торрент музыку Hinkel бесплатно без регистрации torrent

Если у вас наблюдаются проблемы со скриншотами, переходом по ссылками, скачиванием торрентов - проблемы в блокировщике рекламы AdBlock. #хорошегоДня!


Статистика раздачи
Размер:  392 MB   |    Зарегистрирован:  5 лет 4 месяца   |    .torrent скачан:  24 раза   |   
Раздают:  1  
   
Загрузка...
 
Автор Сообщение

Umakiro

avatar Umakiro


Hinkel (Fools Garden guitarist/singer) / Not A Life-Saving Device

Жанр: Rock
Страна-производитель диска: Германия
Год издания: 2005
Издатель (лейбл): Lemonade Music
Номер по каталогу: LC 12938
Страна: Германия
Аудиокодек: FLAC (*.flac)
Тип рипа: image+.cue
Битрейт аудио: lossless
Продолжительность: 59:39:00
Источник (релизер): Собственный диск
Наличие сканов в содержимом раздачи: нет
Треклист:
1. The Way You Look At Me
2. Rumours
3. House of Love
4. Run
5. When I Die
6. Lights
7. Reprise
8. All It Takes
9. The Beauty of It
10. Save Your Life
11. Shine
12. You Can´t Fall Down
13. Run to Seed (bonus-track)
  
Exact Audio Copy V1.0 beta 3 from 29. August 2011

EAC extraction logfile from 3. July 2012, 11:43

Volker Hinkel / Not A Life-Saving Device

Used drive : MATSHITADVD-RAM UJ-842S Adapter: 2 ID: 0

Read mode : SecureUtilize accurate stream : YesDefeat audio cache : YesMake use of C2 pointers : No

Read offset correction : 102Overread into Lead-In and Lead-Out : NoFill up missing offset samples with silence : YesDelete leading and trailing silent blocks : NoNull samples used in CRC calculations : YesUsed interface : Native Win32 interface for Win NT & 2000

Used output format : User Defined EncoderSelected bitrate : 128 kBit/sQuality : HighAdd ID3 tag : NoCommand line compressor : C:\Program Files\Exact Audio Copy\Flac\flac.exeAdditional command line options : -V -8 -T "Date=%year%" -T "Genre=%genre%" %source%

TOC of the extracted CD

Track | Start | Length | Start sector | End sector --------------------------------------------------------- 1 | 0:00.00 | 5:40.54 | 0 | 25553 2 | 5:40.54 | 4:53.58 | 25554 | 47586 3 | 10:34.37 | 5:15.51 | 47587 | 71262 4 | 15:50.13 | 4:17.71 | 71263 | 90608 5 | 20:08.09 | 5:23.02 | 90609 | 114835 6 | 25:31.11 | 5:05.36 | 114836 | 137746 7 | 30:36.47 | 1:48.74 | 137747 | 145920 8 | 32:25.46 | 5:11.61 | 145921 | 169306 9 | 37:37.32 | 4:42.03 | 169307 | 190459 10 | 42:19.35 | 2:22.01 | 190460 | 201110 11 | 44:41.36 | 3:51.49 | 201111 | 218484 12 | 48:33.10 | 7:34.72 | 218485 | 252606 13 | 56:08.07 | 3:36.13 | 252607 | 268819

Range status and errors

Selected range

Filename C:\Program Files\Exact Audio Copy\Flac\Volker Hinkel - Not A Life-Saving Device.wav

Peak level 97.7 % Extraction speed 4.0 X Range quality 99.9 % Test CRC 210235F1 Copy CRC 210235F1 Copy OK

No errors occurred

End of status report

==== Log checksum 5F027F31381191E573440A669BCFBA682F4197157491FF33DA24D39B5BCE08C9 ====
Hinkel - это проект гитариста и второго вокалиста немецкой группы Fools Garden Фолькера Хинкеля (Volker Hinkel) в состав которого входят ещё два участника Fools Garden - Дирк Блюмляйн и Клаус Мюллер. В таком составе группа отыграла всего один концерт в Италии в 2009 году. Кроме этого, в 2008 году был издан 4-трековый ЕР "Heaven and Hell", который можно купить только в цифровом виде на веб сайте Фолькера.
http://www.hinkel-music.de/
"Not A Life-Saving Device" - это второй сольный альбом Фолькера Хинкеля после "In The Wake of Thunder", вышедшего в 1994 году.
Альбом записан на собственной студии Фолькера Hinkelstone.
Volker Hinkel - guitars and vocals
Claus Mueller - drums
Dirk Bluemlein - bass


Трекер:  [ 03-Июл-2012 17:49 ]

  

Скачать .torrent

Размер .torrent файла 16 KB


Размер: 392 MB
Хэш (hash) релиза: 30e0978555dc4537a702f29b4fc8da778700c231

Еще никто не оставлял запись к записи скачать торрент Hinkel . Будь первым!

!Обратная связь