Скачать через торрент музыку Bettie Serveert - Attagirl - 2004, FLAC бесплатно без регистрации torrent

Если у вас наблюдаются проблемы со скриншотами, переходом по ссылками, скачиванием торрентов - проблемы в блокировщике рекламы AdBlock. #хорошегоДня!


Статистика раздачи
Размер:  309 MB   |    Зарегистрирован:  5 лет 1 месяц   |    .torrent скачан:  20 раз   |   
Раздают:  1   Качают:  1  
   
Загрузка...
 
Автор Сообщение

Umakiro

avatar Umakiro


Bettie Serveert - Attagirl

Жанр: Indie Rock, Alternative Rock
Страна-производитель диска: Dutch
Год издания: 2004
Аудиокодек: FLAC (*.flac)
Тип рипа: tracks+.cue
Битрейт аудио: lossless
Продолжительность: 00:48:48
Источник (релизер): вата
Наличие сканов в содержимом раздачи: да
Треклист:
1. Dreamaniacs (3:51)
2. Attagirl (3:54)
3. Don't Touch That Dial (3:37)
4. Greyhound Song (3:21)
5. You've Changed (4:33)
6. Versace (5:16)
7. 1 Off Deal (2:36)
8. Hands Off (3:36)
9. Staying Kind (4:40)
10. Lover I Don't Have to Love (5:48)
11. Dreamaniacs (acoustic) (3:41)
12. Attagirl (acoustic) (3:55)
  
X Lossless Decoder version 20100301 (116.5)

XLD extraction logfile from 2010-03-02 19:17:29 -0800

Bettie Serveert / Attagirl

Used drive : MATSHITA DVD-R UJ-867 (revision HA13)

Use cdparanoia mode : YES (CDParanoia III 10.2 engine)Disable audio cache : OK for the drive with cache less than 2750KBMake use of C2 pointers : NORead offset correction : 102Max retry count : 100

TOC of the extracted CD Track | Start | Length | Start sector | End sector --------------------------------------------------------- 1 | 00:00:00 | 03:50:49 | 0 | 17298 2 | 03:50:49 | 03:53:56 | 17299 | 34829 3 | 07:44:30 | 03:37:17 | 34830 | 51121 4 | 11:21:47 | 03:21:05 | 51122 | 66201 5 | 14:42:52 | 04:33:09 | 66202 | 86685 6 | 19:15:61 | 05:16:11 | 86686 | 110396 7 | 24:31:72 | 02:35:62 | 110397 | 122083 8 | 27:07:59 | 03:35:71 | 122084 | 138279 9 | 30:43:55 | 04:40:20 | 138280 | 159299 10 | 35:24:00 | 05:48:32 | 159300 | 185431 11 | 41:12:32 | 03:40:44 | 185432 | 201975 12 | 44:53:01 | 03:54:70 | 201976 | 219595

All Tracks Album gain : -8.61 dB Peak : 0.959900

Track 01 Filename : /Volumes/Seagate/Bettie Serveert - Attagirl/01 Bettie Serveert - Dreamaniacs.flac /Volumes/Seagate/Bettie Serveert - Attagirl/01 Bettie Serveert - Dreamaniacs.mp3

Pre-gap length : 00:02:00

Track gain : -9.37 dB Peak : 0.959900 CRC32 hash (test run) : 0F31D433 CRC32 hash : 0F31D433 CRC32 hash (skip zero) : 9D060952 AccurateRip signature : B8B40F4F ->Accurately ripped! (confidence 10) Statistics Read error : 0 Skipped (treated as error) : 0 Edge jitter error (maybe fixed) : 0 Atom jitter error (maybe fixed) : 0 Drift error (maybe fixed) : 0 Dropped bytes error (maybe fixed) : 0 Duplicated bytes error (maybe fixed) : 0 Inconsistency in error sectors : 0

Track 02 Filename : /Volumes/Seagate/Bettie Serveert - Attagirl/02 Bettie Serveert - Attagirl.flac /Volumes/Seagate/Bettie Serveert - Attagirl/02 Bettie Serveert - Attagirl.mp3

Track gain : -8.13 dB Peak : 0.937775 CRC32 hash (test run) : 9DDF0F25 CRC32 hash : 9DDF0F25 CRC32 hash (skip zero) : 9699160B AccurateRip signature : E8AB4010 ->Accurately ripped! (confidence 10) Statistics Read error : 0 Skipped (treated as error) : 0 Edge jitter error (maybe fixed) : 0 Atom jitter error (maybe fixed) : 0 Drift error (maybe fixed) : 0 Dropped bytes error (maybe fixed) : 0 Duplicated bytes error (maybe fixed) : 0 Inconsistency in error sectors : 0

Track 03 Filename : /Volumes/Seagate/Bettie Serveert - Attagirl/03 Bettie Serveert - Don't Touch That Dial!.flac /Volumes/Seagate/Bettie Serveert - Attagirl/03 Bettie Serveert - Don't Touch That Dial!.mp3

Pre-gap length : 00:00:25

Track gain : -9.34 dB Peak : 0.923096 CRC32 hash (test run) : 2BF55BD9 CRC32 hash : 2BF55BD9 CRC32 hash (skip zero) : F319CDE5 AccurateRip signature : 4C4B3AC6 ->Accurately ripped! (confidence 10) Statistics Read error : 0 Skipped (treated as error) : 0 Edge jitter error (maybe fixed) : 1 Atom jitter error (maybe fixed) : 1 Drift error (maybe fixed) : 0 Dropped bytes error (maybe fixed) : 0 Duplicated bytes error (maybe fixed) : 0 Inconsistency in error sectors : 0

Track 04 Filename : /Volumes/Seagate/Bettie Serveert - Attagirl/04 Bettie Serveert - Greyhound Song.flac /Volumes/Seagate/Bettie Serveert - Attagirl/04 Bettie Serveert - Greyhound Song.mp3

Pre-gap length : 00:01:25

Track gain : -9.36 dB Peak : 0.904938 CRC32 hash (test run) : FA2CD8BB CRC32 hash : FA2CD8BB CRC32 hash (skip zero) : 1971999F AccurateRip signature : F054BE5F ->Accurately ripped! (confidence 10) Statistics Read error : 0 Skipped (treated as error) : 0 Edge jitter error (maybe fixed) : 3 Atom jitter error (maybe fixed) : 0 Drift error (maybe fixed) : 0 Dropped bytes error (maybe fixed) : 0 Duplicated bytes error (maybe fixed) : 1 Inconsistency in error sectors : 0

Track 05 Filename : /Volumes/Seagate/Bettie Serveert - Attagirl/05 Bettie Serveert - You've Changed.flac /Volumes/Seagate/Bettie Serveert - Attagirl/05 Bettie Serveert - You've Changed.mp3

Pre-gap length : 00:03:07

Track gain : -3.63 dB Peak : 0.605743 CRC32 hash (test run) : 64920237 CRC32 hash : 64920237 CRC32 hash (skip zero) : DEB41550 AccurateRip signature : 07496CCE ->Accurately ripped! (confidence 10) Statistics Read error : 0 Skipped (treated as error) : 0 Edge jitter error (maybe fixed) : 2 Atom jitter error (maybe fixed) : 0 Drift error (maybe fixed) : 0 Dropped bytes error (maybe fixed) : 0 Duplicated bytes error (maybe fixed) : 1 Inconsistency in error sectors : 0

Track 06 Filename : /Volumes/Seagate/Bettie Serveert - Attagirl/06 Bettie Serveert - Versace.flac /Volumes/Seagate/Bettie Serveert - Attagirl/06 Bettie Serveert - Versace.mp3

Pre-gap length : 00:00:16

Track gain : -8.70 dB Peak : 0.858002 CRC32 hash (test run) : BF9AB6AA CRC32 hash : BF9AB6AA CRC32 hash (skip zero) : 00694553 AccurateRip signature : 7761A343 ->Accurately ripped! (confidence 10) Statistics Read error : 0 Skipped (treated as error) : 0 Edge jitter error (maybe fixed) : 1 Atom jitter error (maybe fixed) : 0 Drift error (maybe fixed) : 0 Dropped bytes error (maybe fixed) : 0 Duplicated bytes error (maybe fixed) : 1 Inconsistency in error sectors : 0

Track 07 Filename : /Volumes/Seagate/Bettie Serveert - Attagirl/07 Bettie Serveert - 1 Off Deal.flac /Volumes/Seagate/Bettie Serveert - Attagirl/07 Bettie Serveert - 1 Off Deal.mp3

Pre-gap length : 00:01:01

Track gain : -6.83 dB Peak : 0.943726 CRC32 hash (test run) : 972CB3C2 CRC32 hash : 972CB3C2 CRC32 hash (skip zero) : AECE0294 AccurateRip signature : 04DD87D7 ->Accurately ripped! (confidence 10) Statistics Read error : 0 Skipped (treated as error) : 0 Edge jitter error (maybe fixed) : 1 Atom jitter error (maybe fixed) : 0 Drift error (maybe fixed) : 0 Dropped bytes error (maybe fixed) : 0 Duplicated bytes error (maybe fixed) : 1 Inconsistency in error sectors : 0

Track 08 Filename : /Volumes/Seagate/Bettie Serveert - Attagirl/08 Bettie Serveert - Hands Off.flac /Volumes/Seagate/Bettie Serveert - Attagirl/08 Bettie Serveert - Hands Off.mp3

Pre-gap length : 00:00:34

Track gain : -8.05 dB Peak : 0.886932 CRC32 hash (test run) : 287F5A3F CRC32 hash : 287F5A3F CRC32 hash (skip zero) : 236968CF AccurateRip signature : 3862B502 ->Accurately ripped! (confidence 10) Statistics Read error : 0 Skipped (treated as error) : 0 Edge jitter error (maybe fixed) : 2 Atom jitter error (maybe fixed) : 1 Drift error (maybe fixed) : 0 Dropped bytes error (maybe fixed) : 0 Duplicated bytes error (maybe fixed) : 2 Inconsistency in error sectors : 0

Track 09 Filename : /Volumes/Seagate/Bettie Serveert - Attagirl/09 Bettie Serveert - Staying Kind.flac /Volumes/Seagate/Bettie Serveert - Attagirl/09 Bettie Serveert - Staying Kind.mp3

Pre-gap length : 00:01:25

Track gain : -7.71 dB Peak : 0.943390 CRC32 hash (test run) : 3CF53E18 CRC32 hash : 3CF53E18 CRC32 hash (skip zero) : F46D7A4B AccurateRip signature : 99CBF0E3 ->Accurately ripped! (confidence 10) Statistics Read error : 0 Skipped (treated as error) : 0 Edge jitter error (maybe fixed) : 2 Atom jitter error (maybe fixed) : 0 Drift error (maybe fixed) : 0 Dropped bytes error (maybe fixed) : 1 Duplicated bytes error (maybe fixed) : 1 Inconsistency in error sectors : 0

Track 10 Filename : /Volumes/Seagate/Bettie Serveert - Attagirl/10 Bettie Serveert - Lover I Don't Have to Love.flac /Volumes/Seagate/Bettie Serveert - Attagirl/10 Bettie Serveert - Lover I Don't Have to Love.mp3

Pre-gap length : 00:01:25

Track gain : -9.14 dB Peak : 0.949219 CRC32 hash (test run) : 75C4B694 CRC32 hash : 75C4B694 CRC32 hash (skip zero) : 33D8400D AccurateRip signature : 9AD0CE31 ->Accurately ripped! (confidence 10) Statistics Read error : 0 Skipped (treated as error) : 0 Edge jitter error (maybe fixed) : 5 Atom jitter error (maybe fixed) : 0 Drift error (maybe fixed) : 0 Dropped bytes error (maybe fixed) : 0 Duplicated bytes error (maybe fixed) : 2 Inconsistency in error sectors : 0

Track 11 Filename : /Volumes/Seagate/Bettie Serveert - Attagirl/11 Bettie Serveert - Dreamaniacs (acoustic).flac /Volumes/Seagate/Bettie Serveert - Attagirl/11 Bettie Serveert - Dreamaniacs (acoustic).mp3

Pre-gap length : 00:59:65

Track gain : -4.53 dB Peak : 0.890533 CRC32 hash (test run) : 7FD4058B CRC32 hash : 7FD4058B CRC32 hash (skip zero) : EB357542 AccurateRip signature : 8B13F878 ->Accurately ripped! (confidence 10) Statistics Read error : 0 Skipped (treated as error) : 0 Edge jitter error (maybe fixed) : 2 Atom jitter error (maybe fixed) : 0 Drift error (maybe fixed) : 0 Dropped bytes error (maybe fixed) : 0 Duplicated bytes error (maybe fixed) : 2 Inconsistency in error sectors : 0

Track 12 Filename : /Volumes/Seagate/Bettie Serveert - Attagirl/12 Bettie Serveert - Attagirl (acoustic).flac /Volumes/Seagate/Bettie Serveert - Attagirl/12 Bettie Serveert - Attagirl (acoustic).mp3

Pre-gap length : 00:02:12

Track gain : -5.94 dB Peak : 0.890656 CRC32 hash (test run) : 292BC4B2 CRC32 hash : 292BC4B2 CRC32 hash (skip zero) : 4BC050BB AccurateRip signature : 6002E6AF ->Accurately ripped! (confidence 10) Statistics Read error : 0 Skipped (treated as error) : 0 Edge jitter error (maybe fixed) : 1 Atom jitter error (maybe fixed) : 0 Drift error (maybe fixed) : 0 Dropped bytes error (maybe fixed) : 0 Duplicated bytes error (maybe fixed) : 1 Inconsistency in error sectors : 0

No errors occurred

End of status report
  
TITLE "Attagirl"PERFORMER "Bettie Serveert"REM GENRE "Rock"REM DATE 2005REM REPLAYGAIN_ALBUM_GAIN -8.61 dBREM REPLAYGAIN_ALBUM_PEAK 0.959900FILE "CDImage.wav" WAVE TRACK 01 AUDIO TITLE "Dreamaniacs" ISRC NLD320400054 REM REPLAYGAIN_TRACK_GAIN -9.37 dB REM REPLAYGAIN_TRACK_PEAK 0.959900 INDEX 01 00:00:00 TRACK 02 AUDIO TITLE "Attagirl" ISRC NLD320400055 REM REPLAYGAIN_TRACK_GAIN -8.13 dB REM REPLAYGAIN_TRACK_PEAK 0.937775 INDEX 01 03:50:49 TRACK 03 AUDIO TITLE "Don't Touch That Dial!" ISRC NLD320400056 REM REPLAYGAIN_TRACK_GAIN -9.34 dB REM REPLAYGAIN_TRACK_PEAK 0.923096 INDEX 00 07:44:05 INDEX 01 07:44:30 TRACK 04 AUDIO TITLE "Greyhound Song" ISRC NLD320400057 REM REPLAYGAIN_TRACK_GAIN -9.36 dB REM REPLAYGAIN_TRACK_PEAK 0.904938 INDEX 00 11:20:22 INDEX 01 11:21:47 TRACK 05 AUDIO TITLE "You've Changed" ISRC NLD320400058 REM REPLAYGAIN_TRACK_GAIN -3.63 dB REM REPLAYGAIN_TRACK_PEAK 0.605743 INDEX 00 14:39:45 INDEX 01 14:42:52 TRACK 06 AUDIO TITLE "Versace" ISRC NLD320400059 REM REPLAYGAIN_TRACK_GAIN -8.70 dB REM REPLAYGAIN_TRACK_PEAK 0.858002 INDEX 00 19:15:45 INDEX 01 19:15:61 TRACK 07 AUDIO TITLE "1 Off Deal" ISRC NLD320400060 REM REPLAYGAIN_TRACK_GAIN -6.83 dB REM REPLAYGAIN_TRACK_PEAK 0.943726 INDEX 00 24:30:71 INDEX 01 24:31:72 TRACK 08 AUDIO TITLE "Hands Off" ISRC NLD320400061 REM REPLAYGAIN_TRACK_GAIN -8.05 dB REM REPLAYGAIN_TRACK_PEAK 0.886932 INDEX 00 27:07:25 INDEX 01 27:07:59 TRACK 09 AUDIO TITLE "Staying Kind" ISRC NLD320400062 REM REPLAYGAIN_TRACK_GAIN -7.71 dB REM REPLAYGAIN_TRACK_PEAK 0.943390 INDEX 00 30:42:30 INDEX 01 30:43:55 TRACK 10 AUDIO TITLE "Lover I Don't Have to Love" REM REPLAYGAIN_TRACK_GAIN -9.14 dB REM REPLAYGAIN_TRACK_PEAK 0.949219 INDEX 00 35:22:50 INDEX 01 35:24:00 TRACK 11 AUDIO TITLE "Dreamaniacs (acoustic)" REM REPLAYGAIN_TRACK_GAIN -4.53 dB REM REPLAYGAIN_TRACK_PEAK 0.890533 INDEX 00 40:12:42 INDEX 01 41:12:32 TRACK 12 AUDIO TITLE "Attagirl (acoustic)" REM REPLAYGAIN_TRACK_GAIN -5.94 dB REM REPLAYGAIN_TRACK_PEAK 0.890656 INDEX 00 44:50:64 INDEX 01 44:53:01


Трекер:  [ 03-Июл-2012 17:48 ]

  

Скачать .torrent

Размер .torrent файла 13 KB


Размер: 309 MB
Хэш (hash) релиза: a1febac64d82ded54abe73cb05afb0a9e2583411

Еще никто не оставлял запись к записи скачать торрент Bettie Serveert - Attagirl - 2004, FLAC . Будь первым!

!Обратная связь