Скачать через торрент музыку Sammy Hagar - 36 All-Time Greatest Hits, 3 CD, 1999, FLAC бесплатно без регистрации torrent

Если у вас наблюдаются проблемы со скриншотами, переходом по ссылками, скачиванием торрентов - проблемы в блокировщике рекламы AdBlock. #хорошегоДня!


Статистика раздачи
Размер:  914 MB   |    Зарегистрирован:  5 лет 4 месяца   |    .torrent скачан:  16 раз   |   
Раздают:  1  
   
Загрузка...
 
Автор Сообщение

Umakiro

avatar Umakiro


Sammy Hagar
36 All-Time Greatest Hits, 3 CD

Жанр: Classic Rock & Hard Rock
Страна-производитель диска: US
Год издания: 1999
Страна: US
Аудиокодек: FLAC (*.flac)
Тип рипа: tracks+.cue
Битрейт аудио: lossless
Продолжительность: 02:28:14
Источник (релизер): What.cd
Наличие сканов в содержимом раздачи: нет
01. Rock 'N' Roll Weekend
02. Keep On Rockin'
03. Plain Jane
04. I've Done Everything For You (Live)
05. 20th Century Man
06. It's GOnna Be All Right
07. Cruisin' & Boozin'
08. Growing Pains
09. Love Or Money (Live)
10. (Sittin' On the Dock) The Dock Of The Bay
11. You Make Me Crazy
12. Bad Reputaion
  
Exact Audio Copy V1.0 beta 1 from 15. November 2010

EAC extraction logfile from 28. December 2010, 1:45

Sammy Hagar / 36 All-Time Greatest Hits(disc 1)

Used drive : Optiarc DVD RW AD-7260S Adapter: 2 ID: 1

Read mode : SecureUtilize accurate stream : YesDefeat audio cache : YesMake use of C2 pointers : No

Read offset correction : 48Overread into Lead-In and Lead-Out : NoFill up missing offset samples with silence : YesDelete leading and trailing silent blocks : NoNull samples used in CRC calculations : YesUsed interface : Native Win32 interface for Win NT & 2000Gap handling : Appended to previous track

Used output format : User Defined EncoderSelected bitrate : 768 kBit/sQuality : HighAdd ID3 tag : NoCommand line compressor : C:\Program Files (x86)\Exact Audio Copy\FLAC\FLAC.EXEAdditional command line options : -V -8 -T "artist=%a" -T "title=%t" -T "album=%g" -T "date=%y" -T "tracknumber=%n" -T "genre=%m" %s

TOC of the extracted CD

Track | Start | Length | Start sector | End sector --------------------------------------------------------- 1 | 0:00.00 | 3:07.62 | 0 | 14086 2 | 3:07.62 | 2:52.43 | 14087 | 27029 3 | 6:00.30 | 3:48.20 | 27030 | 44149 4 | 9:48.50 | 3:23.47 | 44150 | 59421 5 | 13:12.22 | 3:16.10 | 59422 | 74131 6 | 16:28.32 | 4:10.63 | 74132 | 92944 7 | 20:39.20 | 3:10.35 | 92945 | 107229 8 | 23:49.55 | 3:45.40 | 107230 | 124144 9 | 27:35.20 | 3:39.07 | 124145 | 140576 10 | 31:14.27 | 3:02.45 | 140577 | 154271 11 | 34:16.72 | 2:47.28 | 154272 | 166824 12 | 37:04.25 | 3:31.65 | 166825 | 182714

Track 1

Filename Z:\FLAC Rips\Sammy Hagar - 1999 - 36 All-Time Greatest Hits(disc 1) [FLAC]\01 - Rock 'N' Roll Weekend.wav

Pre-gap length 0:00:02.00

Peak level 67.0 % Extraction speed 2.1 X Track quality 100.0 % Test CRC 72AC26A4 Copy CRC 72AC26A4 Accurately ripped (confidence 1) [61338262] Copy OK

Track 2

Filename Z:\FLAC Rips\Sammy Hagar - 1999 - 36 All-Time Greatest Hits(disc 1) [FLAC]\02 - Keep On Rockin'.wav

Pre-gap length 0:00:00.42

Peak level 94.4 % Extraction speed 2.2 X Track quality 100.0 % Test CRC 95F7262F Copy CRC 95F7262F Accurately ripped (confidence 1) [7437DF5C] Copy OK

Track 3

Filename Z:\FLAC Rips\Sammy Hagar - 1999 - 36 All-Time Greatest Hits(disc 1) [FLAC]\03 - Plain Jane.wav

Pre-gap length 0:00:01.26

Peak level 98.8 % Extraction speed 2.5 X Track quality 100.0 % Test CRC C1071A49 Copy CRC C1071A49 Accurately ripped (confidence 1) [277AD68D] Copy OK

Track 4

Filename Z:\FLAC Rips\Sammy Hagar - 1999 - 36 All-Time Greatest Hits(disc 1) [FLAC]\04 - I've Done Everything For You(Live).wav

Pre-gap length 0:00:00.26

Peak level 62.1 % Extraction speed 2.4 X Track quality 100.0 % Test CRC C95BF07D Copy CRC C95BF07D Accurately ripped (confidence 1) [155D378E] Copy OK

Track 5

Filename Z:\FLAC Rips\Sammy Hagar - 1999 - 36 All-Time Greatest Hits(disc 1) [FLAC]\05 - 20th Century Man.wav

Pre-gap length 0:00:01.16

Peak level 96.1 % Extraction speed 2.5 X Track quality 100.0 % Test CRC 096DDECC Copy CRC 096DDECC Accurately ripped (confidence 1) [BEEB6B0D] Copy OK

Track 6

Filename Z:\FLAC Rips\Sammy Hagar - 1999 - 36 All-Time Greatest Hits(disc 1) [FLAC]\06 - It's Gonna Be All Right.wav

Pre-gap length 0:00:01.22

Peak level 77.2 % Extraction speed 1.9 X Track quality 100.0 % Test CRC 417EC52D Copy CRC 417EC52D Accurately ripped (confidence 1) [D1314A17] Copy OK

Track 7

Filename Z:\FLAC Rips\Sammy Hagar - 1999 - 36 All-Time Greatest Hits(disc 1) [FLAC]\07 - Cruisin' & Boozin'.wav

Pre-gap length 0:00:01.50

Peak level 77.4 % Extraction speed 2.5 X Track quality 100.0 % Test CRC F35072C2 Copy CRC F35072C2 Accurately ripped (confidence 1) [21DA2F6F] Copy OK

Track 8

Filename Z:\FLAC Rips\Sammy Hagar - 1999 - 36 All-Time Greatest Hits(disc 1) [FLAC]\08 - Growing Pains.wav

Pre-gap length 0:00:01.46

Peak level 87.5 % Extraction speed 2.6 X Track quality 100.0 % Test CRC 4CDC627D Copy CRC 4CDC627D Accurately ripped (confidence 1) [4ECFD0F0] Copy OK

Track 9

Filename Z:\FLAC Rips\Sammy Hagar - 1999 - 36 All-Time Greatest Hits(disc 1) [FLAC]\09 - Love Or Money(Live).wav

Pre-gap length 0:00:00.60

Peak level 85.4 % Extraction speed 2.8 X Track quality 100.0 % Test CRC 420ABEFA Copy CRC 420ABEFA Accurately ripped (confidence 1) [121B0B26] Copy OK

Track 10

Filename Z:\FLAC Rips\Sammy Hagar - 1999 - 36 All-Time Greatest Hits(disc 1) [FLAC]\10 - (Sittin' On) The Dock Of The Bay.wav

Pre-gap length 0:00:01.20

Peak level 69.9 % Extraction speed 2.4 X Track quality 99.9 % Test CRC ACD18321 Copy CRC ACD18321 Accurately ripped (confidence 1) [9F397E19] Copy OK

Track 11

Filename Z:\FLAC Rips\Sammy Hagar - 1999 - 36 All-Time Greatest Hits(disc 1) [FLAC]\11 - You Make Me Crazy.wav

Pre-gap length 0:00:01.33

Peak level 62.3 % Extraction speed 2.3 X Track quality 99.9 % Test CRC DB4FCEE0 Copy CRC DB4FCEE0 Accurately ripped (confidence 1) [86E0C3EE] Copy OK

Track 12

Filename Z:\FLAC Rips\Sammy Hagar - 1999 - 36 All-Time Greatest Hits(disc 1) [FLAC]\12 - Bad Reputation.wav

Pre-gap length 0:00:01.46

Peak level 76.8 % Extraction speed 2.8 X Track quality 99.9 % Test CRC 55870B23 Copy CRC 55870B23 Accurately ripped (confidence 1) [36CE5AC3] Copy OK

All tracks accurately ripped

No errors occurred

End of status report
  
REM GENRE "Hard Rock"REM DATE 1999REM DISCID A809840CREM COMMENT "ExactAudioCopy v1.0b1"FILE "01 - Rock 'N' Roll Weekend.wav" WAVE TRACK 01 AUDIO INDEX 01 00:00:00 TRACK 02 AUDIO INDEX 00 03:07:30FILE "02 - Keep On Rockin'.wav" WAVE INDEX 01 00:00:00 TRACK 03 AUDIO INDEX 00 02:51:23FILE "03 - Plain Jane.wav" WAVE INDEX 01 00:00:00 TRACK 04 AUDIO INDEX 00 03:48:00FILE "04 - I've Done Everything For You(Live).wav" WAVE INDEX 01 00:00:00 TRACK 05 AUDIO INDEX 00 03:22:35FILE "05 - 20th Century Man.wav" WAVE INDEX 01 00:00:00 TRACK 06 AUDIO INDEX 00 03:14:68FILE "06 - It's Gonna Be All Right.wav" WAVE INDEX 01 00:00:00 TRACK 07 AUDIO INDEX 00 04:09:25FILE "07 - Cruisin' & Boozin'.wav" WAVE INDEX 01 00:00:00 TRACK 08 AUDIO INDEX 00 03:09:00FILE "08 - Growing Pains.wav" WAVE INDEX 01 00:00:00 TRACK 09 AUDIO INDEX 00 03:44:70FILE "09 - Love Or Money(Live).wav" WAVE INDEX 01 00:00:00 TRACK 10 AUDIO INDEX 00 03:37:67FILE "10 - (Sittin' On) The Dock Of The Bay.wav" WAVE INDEX 01 00:00:00 TRACK 11 AUDIO INDEX 00 03:01:20FILE "11 - You Make Me Crazy.wav" WAVE INDEX 01 00:00:00 TRACK 12 AUDIO INDEX 00 02:45:68FILE "12 - Bad Reputation.wav" WAVE INDEX 01 00:00:00
01. Red (Live)
02. Turn Up The Music
03. Urban Guerilla
04. This Planet's On Fire (Burn In Hell)
05. Space Station #5 (Live)
06. Love Has Found Me
07. Falling In Love
08. Flamingos Fly
09. Heartbeat
10. Catch The Wind
11. In The Night (Entering The Danger Zone) (Live)
12. The Danger Zone (Live)
  
Exact Audio Copy V1.0 beta 1 from 15. November 2010

EAC extraction logfile from 28. December 2010, 8:50

Sammy Hagar / 36 All-Time Greatest Hits (Disc 2)

Used drive : Optiarc DVD RW AD-7260S Adapter: 2 ID: 1

Read mode : SecureUtilize accurate stream : YesDefeat audio cache : YesMake use of C2 pointers : No

Read offset correction : 48Overread into Lead-In and Lead-Out : NoFill up missing offset samples with silence : YesDelete leading and trailing silent blocks : NoNull samples used in CRC calculations : YesUsed interface : Native Win32 interface for Win NT & 2000Gap handling : Appended to previous track

Used output format : User Defined EncoderSelected bitrate : 768 kBit/sQuality : HighAdd ID3 tag : NoCommand line compressor : C:\Program Files (x86)\Exact Audio Copy\FLAC\FLAC.EXEAdditional command line options : -V -8 -T "artist=%a" -T "title=%t" -T "album=%g" -T "date=%y" -T "tracknumber=%n" -T "genre=%m" %s

TOC of the extracted CD

Track | Start | Length | Start sector | End sector --------------------------------------------------------- 1 | 0:00.00 | 5:06.15 | 0 | 22964 2 | 5:06.15 | 3:34.50 | 22965 | 39064 3 | 8:40.65 | 2:53.22 | 39065 | 52061 4 | 11:34.12 | 4:35.60 | 52062 | 72746 5 | 16:09.72 | 4:09.00 | 72747 | 91421 6 | 20:18.72 | 3:51.25 | 91422 | 108771 7 | 24:10.22 | 4:44.68 | 108772 | 130139 8 | 28:55.15 | 4:25.55 | 130140 | 150069 9 | 33:20.70 | 3:35.30 | 150070 | 166224 10 | 36:56.25 | 4:36.60 | 166225 | 186984 11 | 41:33.10 | 1:28.47 | 186985 | 193631 12 | 43:01.57 | 5:00.28 | 193632 | 216159

Track 1

Filename Z:\FLAC Rips\Sammy Hagar - 1999 - 36 All-Time Greatest Hits (Disc 2) [FLAC]\01 - Red (Live).wav

Pre-gap length 0:00:02.00

Peak level 64.1 % Extraction speed 2.3 X Track quality 100.0 % Test CRC F38E6D45 Copy CRC F38E6D45 Accurately ripped (confidence 1) [6DC183B4] Copy OK

Track 2

Filename Z:\FLAC Rips\Sammy Hagar - 1999 - 36 All-Time Greatest Hits (Disc 2) [FLAC]\02 - Turn Up The Music.wav

Pre-gap length 0:00:01.20

Peak level 78.9 % Extraction speed 2.5 X Track quality 100.0 % Test CRC EC24E628 Copy CRC EC24E628 Accurately ripped (confidence 1) [6BB966D9] Copy OK

Track 3

Filename Z:\FLAC Rips\Sammy Hagar - 1999 - 36 All-Time Greatest Hits (Disc 2) [FLAC]\03 - Urban Guerilla.wav

Pre-gap length 0:00:01.24

Peak level 93.3 % Extraction speed 2.5 X Track quality 100.0 % Test CRC 8BC3C948 Copy CRC 8BC3C948 Accurately ripped (confidence 1) [2F5B87EE] Copy OK

Track 4

Filename Z:\FLAC Rips\Sammy Hagar - 1999 - 36 All-Time Greatest Hits (Disc 2) [FLAC]\04 - This Planet's On Fire (Burn In Hell).wav

Pre-gap length 0:00:01.42

Peak level 88.3 % Extraction speed 2.8 X Track quality 100.0 % Test CRC 9AC1121A Copy CRC 9AC1121A Accurately ripped (confidence 1) [2AE64703] Copy OK

Track 5

Filename Z:\FLAC Rips\Sammy Hagar - 1999 - 36 All-Time Greatest Hits (Disc 2) [FLAC]\05 - Space Station #5 (Live).wav

Pre-gap length 0:00:01.36

Peak level 88.1 % Extraction speed 3.0 X Track quality 100.0 % Test CRC DD691252 Copy CRC DD691252 Accurately ripped (confidence 1) [CF364B64] Copy OK

Track 6

Filename Z:\FLAC Rips\Sammy Hagar - 1999 - 36 All-Time Greatest Hits (Disc 2) [FLAC]\06 - Love Has Found Me.wav

Pre-gap length 0:00:01.36

Peak level 78.5 % Extraction speed 3.1 X Track quality 100.0 % Test CRC 248B5B78 Copy CRC 248B5B78 Accurately ripped (confidence 1) [9AA3DB2B] Copy OK

Track 7

Filename Z:\FLAC Rips\Sammy Hagar - 1999 - 36 All-Time Greatest Hits (Disc 2) [FLAC]\07 - Falling In Love.wav

Pre-gap length 0:00:00.62

Peak level 92.1 % Extraction speed 3.0 X Track quality 99.9 % Test CRC 720F92AE Copy CRC 720F92AE Accurately ripped (confidence 1) [9440000C] Copy OK

Track 8

Filename Z:\FLAC Rips\Sammy Hagar - 1999 - 36 All-Time Greatest Hits (Disc 2) [FLAC]\08 - Flamingos Fly.wav

Pre-gap length 0:00:01.04

Peak level 93.3 % Extraction speed 3.5 X Track quality 100.0 % Test CRC 49AD9A7E Copy CRC 49AD9A7E Accurately ripped (confidence 1) [5D10C2BF] Copy OK

Track 9

Filename Z:\FLAC Rips\Sammy Hagar - 1999 - 36 All-Time Greatest Hits (Disc 2) [FLAC]\09 - Heartbeat.wav

Pre-gap length 0:00:00.93

Peak level 67.6 % Extraction speed 3.5 X Track quality 100.0 % Test CRC 268F83FB Copy CRC 268F83FB Accurately ripped (confidence 1) [F7CAFC68] Copy OK

Track 10

Filename Z:\FLAC Rips\Sammy Hagar - 1999 - 36 All-Time Greatest Hits (Disc 2) [FLAC]\10 - Catch The Wind.wav

Pre-gap length 0:00:01.60

Peak level 83.1 % Extraction speed 3.7 X Track quality 100.0 % Test CRC 2A7C9A39 Copy CRC 2A7C9A39 Accurately ripped (confidence 1) [83EA7924] Copy OK

Track 11

Filename Z:\FLAC Rips\Sammy Hagar - 1999 - 36 All-Time Greatest Hits (Disc 2) [FLAC]\11 - In The Night (Entering The Danger Zone) (Live).wav

Pre-gap length 0:00:00.84

Peak level 87.3 % Extraction speed 3.0 X Track quality 100.0 % Test CRC 99D542B1 Copy CRC 99D542B1 Accurately ripped (confidence 1) [B3DE54BB] Copy OK

Track 12

Filename Z:\FLAC Rips\Sammy Hagar - 1999 - 36 All-Time Greatest Hits (Disc 2) [FLAC]\12 - The Danger Zone (Live).wav

Peak level 98.8 % Extraction speed 3.9 X Track quality 100.0 % Test CRC 6E6EB6EE Copy CRC 6E6EB6EE Accurately ripped (confidence 1) [4783CB77] Copy OK

All tracks accurately ripped

No errors occurred

End of status report
  
REM GENRE "Hard Rock"REM DATE 1999REM DISCID 960B420CREM COMMENT "ExactAudioCopy v1.0b1"FILE "01 - Red (Live).wav" WAVE TRACK 01 AUDIO INDEX 01 00:00:00 TRACK 02 AUDIO INDEX 00 05:05:00FILE "02 - Turn Up The Music.wav" WAVE INDEX 01 00:00:00 TRACK 03 AUDIO INDEX 00 03:33:32FILE "03 - Urban Guerilla.wav" WAVE INDEX 01 00:00:00 TRACK 04 AUDIO INDEX 00 02:51:65FILE "04 - This Planet's On Fire (Burn In Hell).wav" WAVE INDEX 01 00:00:00 TRACK 05 AUDIO INDEX 00 04:34:33FILE "05 - Space Station #5 (Live).wav" WAVE INDEX 01 00:00:00 TRACK 06 AUDIO INDEX 00 04:07:48FILE "06 - Love Has Found Me.wav" WAVE INDEX 01 00:00:00 TRACK 07 AUDIO INDEX 00 03:50:53FILE "07 - Falling In Love.wav" WAVE INDEX 01 00:00:00 TRACK 08 AUDIO INDEX 00 04:43:65FILE "08 - Flamingos Fly.wav" WAVE INDEX 01 00:00:00 TRACK 09 AUDIO INDEX 00 04:24:60FILE "09 - Heartbeat.wav" WAVE INDEX 01 00:00:00 TRACK 10 AUDIO INDEX 00 03:33:60FILE "10 - Catch The Wind.wav" WAVE INDEX 01 00:00:00 TRACK 11 AUDIO INDEX 00 04:35:72FILE "11 - In The Night (Entering The Danger Zone) (Live).wav" WAVE INDEX 01 00:00:00FILE "12 - The Danger Zone (Live).wav" WAVE TRACK 12 AUDIO INDEX 01 00:00:00
01. Trans Am (Highway Wonderland)
02. All American
03. Crack In The World
04. Make It Last/Reckless (Live) (Medley)
05. Child To Man
06. Run For Your Life
07. Someone Out There
08. Straight Out There
09. Miles From Boredom
10. Young Girl Blues
11. Little Star/Eclipse (Medley)
12. Bad Motor Scooter (Live)
  
Exact Audio Copy V1.0 beta 1 from 15. November 2010

EAC extraction logfile from 28. December 2010, 9:34

Sammy Hagar / 36 All Time Greatest Hits (Disc 3)

Used drive : Optiarc DVD RW AD-7260S Adapter: 2 ID: 1

Read mode : SecureUtilize accurate stream : YesDefeat audio cache : YesMake use of C2 pointers : No

Read offset correction : 48Overread into Lead-In and Lead-Out : NoFill up missing offset samples with silence : YesDelete leading and trailing silent blocks : NoNull samples used in CRC calculations : YesUsed interface : Native Win32 interface for Win NT & 2000Gap handling : Appended to previous track

Used output format : User Defined EncoderSelected bitrate : 768 kBit/sQuality : HighAdd ID3 tag : NoCommand line compressor : C:\Program Files (x86)\Exact Audio Copy\FLAC\FLAC.EXEAdditional command line options : -V -8 -T "artist=%a" -T "title=%t" -T "album=%g" -T "date=%y" -T "tracknumber=%n" -T "genre=%m" %s

TOC of the extracted CD

Track | Start | Length | Start sector | End sector --------------------------------------------------------- 1 | 0:00.00 | 3:48.05 | 0 | 17104 2 | 3:48.05 | 3:53.65 | 17105 | 34644 3 | 7:41.70 | 5:11.47 | 34645 | 58016 4 | 12:53.42 | 6:36.68 | 58017 | 87784 5 | 19:30.35 | 4:28.12 | 87785 | 107896 6 | 23:58.47 | 4:20.30 | 107897 | 127426 7 | 28:19.02 | 3:02.70 | 127427 | 141146 8 | 31:21.72 | 3:30.13 | 141147 | 156909 9 | 34:52.10 | 3:45.05 | 156910 | 173789 10 | 38:37.15 | 7:44.07 | 173790 | 208596 11 | 46:21.22 | 6:07.38 | 208597 | 236159 12 | 52:28.60 | 7:05.50 | 236160 | 268084

Track 1

Filename Z:\FLAC Rips\Sammy Hagar - 1999 - 36 All Time Greatest Hits (Disc 3) [FLAC]\01 - Trans Am (Highway Wonderland).wav

Pre-gap length 0:00:02.00

Peak level 98.3 % Extraction speed 2.2 X Track quality 100.0 % Test CRC 518A12C3 Copy CRC 518A12C3 Accurately ripped (confidence 1) [02BA7D49] Copy OK

Track 2

Filename Z:\FLAC Rips\Sammy Hagar - 1999 - 36 All Time Greatest Hits (Disc 3) [FLAC]\02 - All American.wav

Pre-gap length 0:00:01.53

Peak level 93.7 % Extraction speed 2.4 X Track quality 100.0 % Test CRC C243E97B Copy CRC C243E97B Accurately ripped (confidence 1) [8805569D] Copy OK

Track 3

Filename Z:\FLAC Rips\Sammy Hagar - 1999 - 36 All Time Greatest Hits (Disc 3) [FLAC]\03 - Crack In The World.wav

Pre-gap length 0:00:01.20

Peak level 84.7 % Extraction speed 2.7 X Track quality 100.0 % Test CRC 6256672D Copy CRC 6256672D Accurately ripped (confidence 1) [DE09B654] Copy OK

Track 4

Filename Z:\FLAC Rips\Sammy Hagar - 1999 - 36 All Time Greatest Hits (Disc 3) [FLAC]\04 - Make It Last , Reckless (Medley) (Live).wav

Pre-gap length 0:00:01.33

Peak level 67.8 % Extraction speed 3.1 X Track quality 100.0 % Test CRC EDEA4CAF Copy CRC EDEA4CAF Accurately ripped (confidence 1) [22AD9754] Copy OK

Track 5

Filename Z:\FLAC Rips\Sammy Hagar - 1999 - 36 All Time Greatest Hits (Disc 3) [FLAC]\05 - Child To Man.wav

Pre-gap length 0:00:01.06

Peak level 93.3 % Extraction speed 3.1 X Track quality 100.0 % Test CRC ECF9061C Copy CRC ECF9061C Accurately ripped (confidence 1) [C32DCA08] Copy OK

Track 6

Filename Z:\FLAC Rips\Sammy Hagar - 1999 - 36 All Time Greatest Hits (Disc 3) [FLAC]\06 - Run For Your Life.wav

Pre-gap length 0:00:01.36

Peak level 74.1 % Extraction speed 3.3 X Track quality 100.0 % Test CRC DF24E2B0 Copy CRC DF24E2B0 Accurately ripped (confidence 1) [385478B2] Copy OK

Track 7

Filename Z:\FLAC Rips\Sammy Hagar - 1999 - 36 All Time Greatest Hits (Disc 3) [FLAC]\07 - Someone Out There.wav

Pre-gap length 0:00:01.26

Peak level 81.4 % Extraction speed 2.8 X Track quality 99.9 % Test CRC B178B65A Copy CRC B178B65A Accurately ripped (confidence 1) [F1DDBF44] Copy OK

Track 8

Filename Z:\FLAC Rips\Sammy Hagar - 1999 - 36 All Time Greatest Hits (Disc 3) [FLAC]\08 - Straight To The Top.wav

Pre-gap length 0:00:01.33

Peak level 99.9 % Extraction speed 3.0 X Track quality 99.9 % Test CRC 658AD522 Copy CRC 658AD522 Accurately ripped (confidence 1) [E9624995] Copy OK

Track 9

Filename Z:\FLAC Rips\Sammy Hagar - 1999 - 36 All Time Greatest Hits (Disc 3) [FLAC]\09 - Miles From Boredom.wav

Pre-gap length 0:00:01.20

Peak level 69.9 % Extraction speed 3.5 X Track quality 100.0 % Test CRC 5A67B3AC Copy CRC 5A67B3AC Accurately ripped (confidence 1) [9BDDCA4A] Copy OK

Track 10

Filename Z:\FLAC Rips\Sammy Hagar - 1999 - 36 All Time Greatest Hits (Disc 3) [FLAC]\10 - Young Girl Blues.wav

Pre-gap length 0:00:00.97

Peak level 99.7 % Extraction speed 4.0 X Track quality 100.0 % Test CRC 0CFAED7A Copy CRC 0CFAED7A Accurately ripped (confidence 1) [5A938863] Copy OK

Track 11

Filename Z:\FLAC Rips\Sammy Hagar - 1999 - 36 All Time Greatest Hits (Disc 3) [FLAC]\11 - Little Star , Eclipse (Medley).wav

Pre-gap length 0:00:01.40

Peak level 81.2 % Extraction speed 4.1 X Track quality 100.0 % Test CRC A65F10CB Copy CRC A65F10CB Accurately ripped (confidence 1) [4BF3D89B] Copy OK

Track 12

Filename Z:\FLAC Rips\Sammy Hagar - 1999 - 36 All Time Greatest Hits (Disc 3) [FLAC]\12 - Bad Motor Scooter (Live).wav

Pre-gap length 0:00:01.77

Peak level 75.2 % Extraction speed 4.4 X Track quality 100.0 % Test CRC 984126AD Copy CRC 984126AD Accurately ripped (confidence 1) [78879C73] Copy OK

All tracks accurately ripped

No errors occurred

End of status report
  
REM GENRE "Hard Rock"REM DATE 1999REM DISCID 930DF60CREM COMMENT "ExactAudioCopy v1.0b1"FILE "01 - Trans Am (Highway Wonderland).wav" WAVE TRACK 01 AUDIO INDEX 01 00:00:00 TRACK 02 AUDIO INDEX 00 03:46:40FILE "02 - All American.wav" WAVE INDEX 01 00:00:00 TRACK 03 AUDIO INDEX 00 03:52:50FILE "03 - Crack In The World.wav" WAVE INDEX 01 00:00:00 TRACK 04 AUDIO INDEX 00 05:10:22FILE "04 - Make It Last , Reckless (Medley) (Live).wav" WAVE INDEX 01 00:00:00 TRACK 05 AUDIO INDEX 00 06:35:63FILE "05 - Child To Man.wav" WAVE INDEX 01 00:00:00 TRACK 06 AUDIO INDEX 00 04:26:60FILE "06 - Run For Your Life.wav" WAVE INDEX 01 00:00:00 TRACK 07 AUDIO INDEX 00 04:19:10FILE "07 - Someone Out There.wav" WAVE INDEX 01 00:00:00 TRACK 08 AUDIO INDEX 00 03:01:45FILE "08 - Straight To The Top.wav" WAVE INDEX 01 00:00:00 TRACK 09 AUDIO INDEX 00 03:28:73FILE "09 - Miles From Boredom.wav" WAVE INDEX 01 00:00:00 TRACK 10 AUDIO INDEX 00 03:44:07FILE "10 - Young Girl Blues.wav" WAVE INDEX 01 00:00:00 TRACK 11 AUDIO INDEX 00 07:42:52FILE "11 - Little Star , Eclipse (Medley).wav" WAVE INDEX 01 00:00:00 TRACK 12 AUDIO INDEX 00 06:05:55FILE "12 - Bad Motor Scooter (Live).wav" WAVE INDEX 01 00:00:00


Трекер:  [ 03-Июл-2012 17:48 ]

  

Скачать .torrent

Размер .torrent файла 21 KB


Размер: 914 MB
Хэш (hash) релиза: dd23f8482c7d436dc4be5789a1e5140e107202a5

Еще никто не оставлял запись к записи скачать торрент Sammy Hagar - 36 All-Time Greatest Hits, 3 CD, 1999, FLAC . Будь первым!

!Обратная связь